<?xml version="1.0" standalone="no"?>
<!DOCTYPE svg PUBLIC "-//W3C//DTD SVG 1.1//EN" "http://www.w3.org/Graphics/SVG/1.1/DTD/svg11.dtd" >
<!--
2013-9-30: Created.
-->
<svg>
<metadata>
Created by iconfont
</metadata>
<defs>

<font id="iconfont" horiz-adv-x="1024" >
  <font-face
    font-family="iconfont"
    font-weight="500"
    font-stretch="normal"
    units-per-em="1024"
    ascent="896"
    descent="-128"
  />
    <missing-glyph />
    
    <glyph glyph-name="gengduo1" unicode="&#58989;" d="M512 832C264.8 832 64 631.2 64 384s200.8-448 448-448 448 200.8 448 448S759.2 832 512 832z m0-832c-211.2 0-384 172-384 384 0 211.2 172 384 384 384 211.2 0 384-172 384-384 0-211.2-172.8-384-384-384zM304.8 384m-48 0a48 48 0 1 1 96 0 48 48 0 1 1-96 0ZM719.2 384m-48 0a48 48 0 1 1 96 0 48 48 0 1 1-96 0ZM512 384m-48 0a48 48 0 1 1 96 0 48 48 0 1 1-96 0Z"  horiz-adv-x="1024" />

    
    <glyph glyph-name="weixin" unicode="&#58998;" d="M512 896C228.6848 896 0 667.3152 0 384s228.6848-512 512-512 512 228.6848 512 512S795.3152 896 512 896zM764.5952 151.8848l17.0496-64.8448L716.8 124.5952c-23.8848-6.8352-47.7952-13.6704-71.68-13.6704-112.64 0-201.3952 85.3504-201.3952 187.7504 0 102.4 88.7552 187.7248 201.3952 187.7248 105.8048 0 201.3952-85.3248 201.3952-187.7248 3.4048-58.0352-34.1504-109.2352-81.92-146.7904zM413.0048 240.64c-30.72 0-54.6048 6.8352-81.92 13.6448L245.76 206.5152l23.8848 78.4896c-61.44 44.3904-95.5648 102.4-95.5648 174.08 0 122.88 109.2352 218.4704 238.9248 218.4704 116.0704 0 218.4704-75.1104 238.9504-180.9152-6.8352 3.4048-17.0752 3.4048-23.9104 3.4048-116.0448 0-201.3696-92.16-201.3696-204.8 0-20.48 3.4048-37.5296 6.8096-54.6048h-20.48zM580.2752 384c-10.24 0-23.9104-10.24-23.9104-27.3152 0-10.24 10.24-23.8848 23.9104-23.8848 17.0496 0 30.72 10.24 30.72 23.8848 0 17.0752-13.6704 27.3152-30.72 27.3152zM501.76 506.88c17.0752 0 30.72 13.6448 30.72 30.72 0 20.48-10.24 30.72-30.72 30.72-17.0752 0-34.1248-10.24-34.1248-30.72 0-17.0752 17.0496-30.72 34.1248-30.72z m-167.2448 64.8448c-17.0752 0-37.5552-10.24-37.5552-30.72 0-20.48 17.0752-30.72 37.5552-30.72 17.0496 0 30.72 13.6704 30.72 30.72 0 17.0752-13.6704 30.72-30.72 30.72zM713.3952 384c-13.6704 0-23.9104-10.24-23.9104-27.3152 0-10.24 10.24-23.8848 23.9104-23.8848 17.0496 0 30.72 10.24 30.72 23.8848-3.4304 17.0752-13.6704 27.3152-30.72 27.3152z"  horiz-adv-x="1024" />

    
    <glyph glyph-name="zuzhizhankai" unicode="&#59134;" d="M832 96H256a32 32 0 0 0-32 32V704a32 32 0 0 0 64 0v-544h544a32 32 0 1 0 0-64z"  horiz-adv-x="1024" />

    
    <glyph glyph-name="arrow_turn_down_right" unicode="&#59196;" d="M150.070857 721.28c-22.290286 0-33.005714-14.555429-36.425143-31.707429-2.998857-13.293714-3.858286-34.285714-3.858285-59.574857 0-207.433143 83.145143-296.576 286.281142-296.576h299.574858l104.996571 5.997715-144-131.565715-95.140571-96.859428a40.045714 40.045714 0 0 1-10.715429-27.428572c0-21.430857 16.713143-36.845714 37.723429-36.845714 9.837714 0 19.273143 3.84 28.708571 12.854857L900.937143 342.857143c8.978286 8.576 13.275429 18.432 13.275428 29.147428 0 10.276571-4.297143 20.571429-13.293714 28.708572L616.374857 685.293714c-8.576 8.137143-18.011429 11.556571-27.849143 11.556572-21.010286 0-37.723429-15.414857-37.723428-36.845715 0-10.294857 3.84-20.150857 10.715428-27.008l95.140572-96.859428 144.438857-132.425143-105.435429 6.436571H399.908571c-157.293714 0-212.571429 64.713143-212.571428 223.707429 0 20.571429 1.28 34.285714 1.28 49.718857 0 22.290286-15.853714 37.705143-38.582857 37.705143z"  horiz-adv-x="1024" />

    
    <glyph glyph-name="connectdevice" unicode="&#58955;" d="M566.4 467.024a13.92 13.92 0 0 0 8.752-3.6 752.32 752.32 0 0 0 23.52-25.712c4.384-5.056 7.792-9.28 9.36-11.76a140.912 140.912 0 0 0-19.456-174.928l-156.096-156.096a140.864 140.864 0 0 0-199.216 199.2l107.296 107.312a16 16 0 0 0 22.624 0l11.328-11.312a16 16 0 0 0 0-22.624L267.2 260.208a92.864 92.864 0 0 1 131.344-131.344l156.096 156.096a92.912 92.912 0 0 1 12.848 115.296 120.832 120.832 0 0 1-7.648 9.008c-5.36 5.984-12.624 13.824-18.96 20.48-1.808 1.92-2.976 5.104-2.944 8.96 0.032 3.632 1.168 7.968 2.592 9.408l16.208 16.208c1.44 1.44 5.664 2.912 9.68 2.704z m35.456 195.712A140.864 140.864 0 0 0 801.072 463.52l-84.848-84.848-12.88-12.88-2.192-2.192a24 24 0 0 0-15.216-6.496c-3.504-0.096-6.48 1.408-11.2 4.8-3.152 2.256-6.976 6.08-11.488 11.472-3.008 4.08-3.984 8.256-2.912 12.528 1.36 5.44 2.832 7.52 4.16 8.912l1.104 1.104 7.552 7.568 93.984 93.968a92.864 92.864 0 0 1-131.344 131.344l-156.096-156.096a92.912 92.912 0 0 1-12.848-115.296c0.784-1.248 4.112-5.104 8.56-10.032 4.912-5.44 11.168-12.208 16.832-18.192 1.856-1.952 3.36-6.144 3.616-10 0.288-4.432-0.96-8.528-2.624-10.208l-13.824-13.808c-1.632-1.632-7.424-4.368-11.872-4.464-4.304-0.096-9.76 5.008-10.08 5.344-5.92 6.24-12.272 13.12-17.76 19.296-6.256 7.04-11.36 13.168-13.392 16.368a140.912 140.912 0 0 0 19.456 174.928z"  horiz-adv-x="1024" />

    
    <glyph glyph-name="socialinstagram" unicode="&#59656;" d="M512 384.334m-160 0a80 80 0 1 0 320 0 80 80 0 1 0-320 0ZM355.61 542.226c42.308 42.308 98.558 65.858 158.39 65.858s116.082-23.674 158.39-65.982c26.844-26.844 46.022-59.102 56.464-95.102L897 447l0 226c0 53.02-40.98 94-94 94l-576 0c-53.02 0-98-40.98-98-94l0-226 170.144 0C309.588 483 328.766 515.382 355.61 542.226zM833 600.6c0-14.138-11.46-25.6-25.6-25.6l-76.8 0c-14.138 0-25.6 11.46-25.6 25.6l0 76.8c0 14.138 11.46 25.6 25.6 25.6l76.8 0c14.138 0 25.6-11.46 25.6-25.6L833 600.6zM672.39 225.442c-42.308-42.308-98.558-65.358-158.39-65.358s-116.082 22.924-158.39 65.232c-42.23 42.23-65.518 99.684-65.606 157.684L129 383l0-286c0-53.02 44.98-98 98-98l576 0c53.02 0 94 44.98 94 98l0 286-159.004 0C737.91 325 714.622 267.672 672.39 225.442z"  horiz-adv-x="1024" />

    
    <glyph glyph-name="instagram" unicode="&#59132;" d="M512 473.67619035c-83.885714 0-152.342857-68.457143-152.342857-152.34285701S428.114286 168.99047634 512 168.99047634 664.342857 237.44761934999997 664.342857 321.33333333999997 595.885714 473.67619035 512 473.67619035zM968.914286 321.33333333999997c0 63.085714 0.571429 125.6-2.971429 188.571429-3.542857 73.142857-20.228571 138.057143-73.714286 191.542857-53.6 53.6-118.4 70.171429-191.542857 73.71428501-63.085714 3.542857-125.6 2.971429-188.571428 2.97142899-63.085714 0-125.6 0.571429-188.571429-2.97142899-73.142857-3.542857-138.057143-20.228571-191.542857-73.71428501C78.4 647.8476193500001 61.828571 583.04761935 58.285714 509.90476234c-3.542857-63.085714-2.971429-125.6-2.971428-188.571429s-0.571429-125.6 2.971428-188.571429c3.542857-73.142857 20.228571-138.057143 73.714286-191.542857 53.6-53.6 118.4-70.171429 191.542857-73.714285 63.085714-3.542857 125.6-2.971429 188.571429-2.97142899 63.085714 0 125.6-0.571429 188.571428 2.97142899 73.142857 3.542857 138.057143 20.228571 191.542857 73.714285 53.6 53.6 70.171429 118.4 73.714286 191.542857 3.657143 62.971429 2.971429 125.485714 2.971429 188.571429zM512 86.93333333999999c-129.714286 0-234.4 104.685714-234.4 234.4S382.285714 555.7333333500001 512 555.7333333500001 746.4 451.04761935 746.4 321.33333333999997 641.714286 86.93333333999999 512 86.93333333999999z m244 423.65714301c-30.285714 0-54.742857 24.457143-54.742857 54.742857s24.457143 54.742857 54.742857 54.742857 54.742857-24.457143 54.742857-54.742857a54.674286 54.674286 0 0 0-54.742857-54.742857z"  horiz-adv-x="1024" />

    
    <glyph glyph-name="toolsetting" unicode="&#58943;" d="M972.63543 493.714285 882.614854 493.714285C874.130285 512 862.098285 550.034285 846.701715 577.133715L910.281146 638.921143C930.358854 658.998857 930.377146 690.578285 910.317715 710.619428L837.741715 782.756572C817.70057 802.797715 785.206854 802.578285 765.129146 782.518857L705.097146 718.848C678.034285 734.226285 640 746.166857 621.714285 754.651428L621.714285 844.653714C621.714285 873.033143 591.652572 896 563.328 896L460.690285 896C432.347428 896 402.285715 873.033143 402.285715 844.653714L402.285715 754.633143C384 746.148572 345.984 734.116572 318.884572 718.738285L257.078857 782.317715C237.001143 802.395428 205.403428 802.395428 185.380572 782.354285L113.243428 709.76C93.220572 689.737143 93.403428 657.243428 113.481143 637.147428L177.170285 577.115428C161.773715 550.016 149.851428 512 141.366857 493.714285L51.364571 493.714285C22.966857 493.714285 0 463.652572 0 435.328L0 332.690285C0 304.365715 22.966857 274.285715 51.364571 274.285715L141.385143 274.285715C149.869715 256 161.92 217.984 177.28 190.88457L113.700572 129.06057C93.622857 108.982854 93.622857 77.421715 113.664 57.38057L186.24-14.774854C206.262857-34.797715 238.774857-34.59657 258.852572-14.518854L318.884572 49.170285C345.984 33.792 384 21.85143 402.285715 13.366854L402.285715-76.653715C402.285715-105.033146 432.347428-128 460.672-128L563.309715-128C591.634285-128 621.714285-105.033146 621.714285-76.63543L621.714285 13.385146C640 21.869715 678.016 33.92 705.133715 49.298285L766.93943-14.281146C787.017146-34.358854 818.578285-34.358854 838.61943-14.317715L910.774854 58.258285C930.797715 78.29943 930.59657 110.793146 910.518854 130.870854L846.829715 190.902854C862.208 218.002285 874.14857 256 882.633146 274.285715L972.653715 274.285715C1001.033146 274.285715 1024 304.347428 1024 332.672L1024 435.309715C1024 463.652572 1001.033146 493.714285 972.63543 493.714285L972.63543 493.714285ZM512 153.106285C384.457143 153.106285 281.069715 256.493715 281.069715 384.018285 281.069715 511.561143 384.457143 614.948572 512 614.948572 639.561143 614.948572 742.930285 511.561143 742.930285 384.018285 742.930285 256.493715 639.561143 153.106285 512 153.106285L512 153.106285Z"  horiz-adv-x="1024" />

    
    <glyph glyph-name="news" unicode="&#59082;" d="M512.017 896C229.183988 896 0 666.769263 0 384.002125 0 101.230737 229.222237-128 512.017-128c282.686389 0 511.983 229.230737 511.983 512S794.741638 896 512.017 896z m-78.411256-751.109706c-39.314001-35.801432-99.616294-33.71684-134.652738 4.721676-35.036444 38.546888-31.562124 98.742933 7.749752 134.620863 39.348001 35.803557 99.616294 33.71684 134.688862-4.753549 35.034319-38.43639 31.559999-98.706809-7.792251-134.58474l0.006375-0.00425z m158.207989 16.608737c-7.977123 65.240715-34.96207 128.403212-82.174571 180.190765-49.807085 54.673257-114.244562 88.101102-182.487854 100.610779v75.410803c88.976588-12.945295 173.709618-54.346013 238.295844-125.183888 60.266169-66.228824 93.728013-147.419536 101.626512-231.019959h-75.259931v-0.0085z m187.490025 0c-7.677503 110.993364-50.283077 219.574891-130.190309 307.272249-86.707124 95.12199-201.905796 148.70089-321.966391 161.794932V705.643396c140.723767-13.017543 276.326365-74.752064 377.80838-186.036548 92.9609-102.000506 141.637502-228.790869 149.100384-358.107817h-74.752064z"  horiz-adv-x="1024" />

    
    <glyph glyph-name="icon_h_citation" unicode="&#58920;" d="M448 32H64v233.6c0 92.8 9.6 169.6 28.8 224 19.2 54.4 54.4 102.4 108.8 147.2s121.6 76.8 201.6 102.4L480 604.8c-76.8-22.4-131.2-51.2-166.4-89.6s-51.2-89.6-51.2-153.6H448V32z m480 0H544v233.6c0 96 9.6 169.6 28.8 224 19.2 54.4 57.6 102.4 108.8 147.2s121.6 76.8 201.6 102.4L960 604.8c-76.8-22.4-131.2-51.2-166.4-89.6s-51.2-89.6-51.2-153.6H928V32z"  horiz-adv-x="1024" />

    
    <glyph glyph-name="cuxiaoxinxi" unicode="&#58913;" d="M1023.819358 684C1023.819358 754.600964 966.435376 812 895.924732 812L128.511819 812C58.001176 812 0.617194 754.600964 0.617194 684l0-64.007527c0-17.100788 3.492414-33.373633 9.60414-48.276608-6.081618-14.722333-9.60414-30.784429-9.60414-47.719628l0-607.996237c0-70.585911 57.383982-128 127.894625-128l767.412913 0c70.525697 0 127.894625 57.399036 127.894625 128L1023.819358 523.996237c0 16.935199-3.507468 32.997295-9.60414 47.719628C1020.326943 586.61884 1023.819358 602.891685 1023.819358 619.992473L1023.819358 684zM959.872045-84c0-35.285429-28.676938-64.007527-63.947313-64.007527L128.511819-148.007527c-35.270375 0-63.947313 28.722098-63.947313 64.007527L64.564507 509.81583c18.892156-11.034223 40.539104-17.823356 63.947313-17.823356l767.412913 0c23.408209 0 45.055157 6.77408 63.947313 17.823356L959.872045-84zM959.872045 619.992473c0-35.285429-28.676938-63.992473-63.947313-63.992473L128.511819 556c-35.270375 0-63.947313 28.707045-63.947313 63.992473L64.564507 684c0 35.270375 28.676938 63.992473 63.947313 63.992473l767.412913 0c35.270375 0 63.947313-28.722098 63.947313-63.992473L959.872045 619.992473zM863.951076 395.996237l-127.909679 0c-17.657768 0-31.973656-14.315889-31.973656-32.003763s14.315889-31.98871 31.973656-31.98871l29.775844 0c-15.82124-126.073151-123.393626-224.01129-253.591438-224.01129-130.197813 0-237.770199 97.938139-253.591438 224.01129l29.76079 0c17.672821 0 31.973656 14.300835 31.973656 31.98871s-14.300835 32.003763-31.973656 32.003763l-127.894625 0c-17.657768 0-31.973656-14.315889-31.973656-32.003763s14.315889-31.98871 31.973656-31.98871l33.599435 0c16.092203-161.479007 152.597436-288.003763 318.125838-288.003763s302.018582 126.524756 318.125838 288.003763l33.599435 0c17.657768 0 31.973656 14.300835 31.973656 31.98871S881.608844 395.996237 863.951076 395.996237z"  horiz-adv-x="1024" />

    
    <glyph glyph-name="youhui" unicode="&#58914;" d="M928.023273 576H96.023273a31.976727 31.976727 0 1 0 0 64h832a32.023273 32.023273 0 0 0 0-64z m-384-64h351.976727v-256h-352.023273v256z m351.976727-512c0-35.328-28.672-64-64-64h-288.023273v256h352.023273v-192z m-768 512h352.023273v-256H128v256z m352.023273-576H192A64.046545 64.046545 0 0 0 128 0v192h352.023273v-256zM415.976727 832a64.046545 64.046545 0 1 0 0-128.046545 64.046545 64.046545 0 0 0 0 128.046545z m192.046546 0a64.046545 64.046545 0 1 0-0.093091-128.046545 64.046545 64.046545 0 0 0 0.093091 128.046545z m110.219636-128a126.603636 126.603636 0 0 1 17.780364 64A128 128 0 0 1 608.023273 896 127.069091 127.069091 0 0 1 512 851.828364 127.069091 127.069091 0 0 1 415.976727 896a128 128 0 0 1-128-128c0-23.412364 6.795636-45.149091 17.780364-64H64C28.672 704 0 675.328 0 640v-64C0 540.672 28.672 512 64 512v-512A128 128 0 0 1 192-128h640a128 128 0 0 1 128 128v512c35.328 0 64 28.672 64 64V640c0 35.328-28.672 64-64 64h-241.757091z"  horiz-adv-x="1024" />

    
    <glyph glyph-name="video" unicode="&#58915;" d="M1046.357333-127.146667H147.2C66.133333-127.146667 0-58.197333 0 26.965333V741.802667C0 826.709333 65.877333 896 147.2 896h899.157333c81.066667 0 147.285333-69.034667 147.285334-154.197333v-714.837334c-0.341333-84.821333-66.218667-154.112-147.285334-154.112zM147.2 840.106667C95.402667 840.106667 53.162667 795.818667 53.162667 741.546667v-714.837334c0-54.272 42.24-98.474667 94.037333-98.474666h899.157333c51.797333 0 94.122667 44.202667 94.122667 98.474666v715.093334c0 54.272-42.325333 98.56-94.122667 98.56H147.2v-0.256zM197.205333-126.890667A27.306667 27.306667 0 0 0 170.666667-99.072V868.181333C170.666667 883.541333 182.613333 896 197.205333 896a27.306667 27.306667 0 0 0 26.624-27.818667v-967.253333c0-15.36-11.690667-27.818667-26.624-27.818667z m784.042667 0a27.306667 27.306667 0 0 0-26.538667 27.818667V868.181333c0 15.36 11.946667 27.818667 26.538667 27.818667a27.306667 27.306667 0 0 0 26.624-27.818667v-967.253333a27.306667 27.306667 0 0 0-26.624-27.818667zM181.248 584.362667H23.552C10.581333 584.362667 0 596.906667 0 612.181333 0 627.541333 10.581333 640 23.552 640h157.696c12.970667 0 23.552-12.544 23.552-27.818667 0-15.36-10.325333-27.818667-23.552-27.818666z m0-218.197334H23.552C10.581333 366.165333 0 378.709333 0 393.984c0 15.36 10.581333 27.818667 23.552 27.818667h157.696c12.970667 0 23.552-12.458667 23.552-27.818667 0-15.274667-10.325333-27.818667-23.552-27.818667z m0-245.674666H23.552C10.581333 120.490667 0 133.034667 0 148.309333c0 15.36 10.581333 27.818667 23.552 27.818667h157.696c12.970667 0 23.552-12.544 23.552-27.818667 0-15.36-10.325333-27.818667-23.552-27.818666zM1152.085333 584.362667H981.333333c-14.08 0-25.514667 12.544-25.514666 27.818666 0 15.36 11.434667 27.818667 25.514666 27.818667H1152c13.994667 0 25.514667-12.544 25.514667-27.818667 0-15.36-11.52-27.818667-25.514667-27.818666z m0-218.197334H981.333333c-14.08 0-25.514667 12.544-25.514666 27.818667 0 15.36 11.434667 27.818667 25.514666 27.818667H1152c13.994667 0 25.514667-12.458667 25.514667-27.818667 0-15.274667-11.52-27.818667-25.514667-27.818667z m0-245.674666H981.333333c-14.08 0-25.514667 12.544-25.514666 27.818666 0 15.36 11.434667 27.818667 25.514666 27.818667H1152c13.994667 0 25.514667-12.544 25.514667-27.818667 0-15.36-11.52-27.818667-25.514667-27.818666zM453.205333 156.074667a25.173333 25.173333 0 0 0-13.226666 3.584A28.16 28.16 0 0 0 426.666667 183.893333V526.677333a28.16 28.16 0 0 0 13.312 24.234667 25.344 25.344 0 0 0 26.538666 0L750.08 379.477333a28.16 28.16 0 0 0 13.312-24.149333 28.16 28.16 0 0 0-13.312-24.234667L466.517333 159.914667a26.282667 26.282667 0 0 0-13.312-3.84z m26.624 322.56v-246.613334l203.861334 123.306667-203.946667 123.221333z"  horiz-adv-x="1194" />

    
    <glyph glyph-name="downloadfile" unicode="&#58928;" d="M969.6768 564.4288V638.976c0 64-48.128 135.5264-112.5376 135.5264h-324.4544l-13.312 26.624A76.5952 76.5952 0 0 1 450.816 844.8H104.704C46.9504 844.8 0 793.9072 0 731.3408v-694.7328C0-25.9072 46.9504-76.8 104.704-76.8h814.592C977.0496-76.8 1024-25.9072 1024 36.608V463.0016c0 36.9664-23.1936 76.1344-54.3232 101.4272zM857.088 706.304c22.3744 0 47.9232-35.8912 47.9232-67.3792v-47.104l-3.2768 0.1024h-277.3504l-57.4976 114.3808h290.2016z m102.2464-669.696c0-24.9344-17.9712-45.2608-40.0896-45.2608H104.704c-22.1184 0-40.0896 20.3264-40.0896 45.2608V731.3408c0 24.9856 17.9712 45.312 40.0896 45.312h346.1632c4.7104 0 9.0112-2.7136 11.264-7.3216l114.3296-227.4304c5.632-11.1616 16.5888-18.1248 28.5184-18.1248h296.8064c23.1424 0 57.6-36.352 57.6-60.7744v-426.3936zM494.9504 77.312v389.12c0 10.9568 13.9776 19.968 31.232 19.968 17.3056 0 31.3344-9.0112 31.3344-19.968v-389.12c0-11.0592-14.0288-20.0704-31.2832-20.0704-17.3568 0-31.2832 8.9088-31.2832 20.0192zM307.2 249.088c0 6.5024 2.304 13.1072 7.0144 18.3296a25.2416 25.2416 0 0 0 36.5568 1.2288l175.4624-170.8032 175.4624 170.7008a25.2928 25.2928 0 0 0 36.608-1.28 27.5456 27.5456 0 0 0-1.28-37.8368l-193.0752-187.904a25.2416 25.2416 0 0 0-35.328 0L315.392 229.632a26.9312 26.9312 0 0 0-8.192 19.5584z"  horiz-adv-x="1024" />

    
    <glyph glyph-name="project" unicode="&#59238;" d="M844.288 708.608H467.456c-4.608 69.12-62.464 124.416-132.608 124.416H179.712c-73.216 0-133.12-59.904-133.12-133.12v-631.808c0-73.216 59.904-133.12 133.12-133.12h664.064c73.216 0 133.12 59.904 133.12 133.12V575.488c0.512 73.216-59.392 133.12-132.608 133.12zM179.712 771.584h155.136c36.352 0 67.072-27.648 71.168-62.976H108.544c4.096 35.328 34.304 62.976 71.168 62.976z m736.256-703.488c0-39.424-32.256-71.68-71.68-71.68H179.712c-39.424 0-71.68 32.256-71.68 71.68V647.168h735.744c39.424 0 71.68-32.256 71.68-71.68v-507.392zM245.76 415.744c3.072-17.92 19.968-30.72 38.4-27.648 17.92 3.072 30.72 19.968 27.648 38.4-3.072 17.92-19.968 30.72-38.4 27.648-17.92-3.072-30.208-19.968-27.648-38.4zM744.96 451.584H408.576c-16.896 0-30.72-13.824-30.72-30.72s13.824-30.72 30.72-30.72h336.384c16.896 0 30.72 13.824 30.72 30.72s-13.824 30.72-30.72 30.72zM245.76 217.088c3.072-17.92 19.968-30.72 38.4-27.648 17.92 3.072 30.72 19.968 27.648 38.4-3.072 17.92-19.968 30.72-38.4 27.648-17.92-3.072-30.208-19.968-27.648-38.4zM744.96 252.928H408.576c-16.896 0-30.72-13.824-30.72-30.72s13.824-30.72 30.72-30.72h336.384c16.896 0 30.72 13.824 30.72 30.72s-13.824 30.72-30.72 30.72z"  horiz-adv-x="1024" />

    
    <glyph glyph-name="tools" unicode="&#58916;" d="M344.792 377.425L303.4 418.816a26.947 26.947 0 0 0 38.13 38.13l60.174-60.173a26.947 26.947 0 0 0 0.27-37.834L114.392 62.84a26.947 26.947 0 0 1 0.27-37.834l68.984-68.958a26.947 26.947 0 0 1 38.077 0l291.301 291.3a26.947 26.947 0 0 0 38.104 0l146.324-146.323a26.947 26.947 0 1 0-38.104-38.13L532.076 190.167 259.853-82.055a80.842 80.842 0 0 0-114.337 0L76.53-13.096a80.842 80.842 0 0 0-0.809 113.475l269.043 277.046z m473.546-155.54a26.947 26.947 0 1 0-38.104-38.104L597.288 366.727a26.947 26.947 0 0 0 0 38.103l148.13 148.103a26.947 26.947 0 0 0 15.36 7.653l88.603 12.18 89.627 170.927-56.697 60.39-167.37-97.254-16.546-85.53a26.947 26.947 0 0 0-7.384-13.96l-148.13-148.102a26.947 26.947 0 0 0-38.103 0l-77.474 77.474a26.947 26.947 0 1 0 38.104 38.103l58.422-58.422 123.23 123.23 17.273 89.466a26.947 26.947 0 0 0 12.935 18.19l196.5 114.175a26.947 26.947 0 0 0 33.173-4.85l84.48-90.004a26.947 26.947 0 0 0 4.203-30.963l-104.96-200.165a26.947 26.947 0 0 0-20.21-14.201l-93.346-12.854-122.637-122.637 163.867-163.894zM610.816 111.427a26.947 26.947 0 0 0 38.104 38.104l52.089-52.09a26.947 26.947 0 0 0-38.104-38.103l-52.089 52.09zM368.371 352.58a26.947 26.947 0 1 0 37.995 38.185L705.671 92.78a26.947 26.947 0 0 0 7.814-21.45 111.373 111.373 0 0 1 31.475-87.471 107.79 107.79 0 1 1 68.662 183.727 37.654 37.654 0 0 0-5.578 0.054 26.947 26.947 0 0 0-19.537 7.868L485.24 478.046a26.947 26.947 0 1 0 38.05 38.158l295.181-294.481A161.684 161.684 0 1 0 706.83-54.272a165.16 165.16 0 0 0-47.642 117.275L368.37 352.579zM783.076 21.964a53.895 53.895 0 1 1 76.22 76.219 53.895 53.895 0 1 1-76.22-76.219zM421.807 307.011a26.947 26.947 0 0 0 38.104-38.13L221.723 30.72a26.947 26.947 0 1 0-38.104 38.104L421.807 307.01z m81.597 229.808a26.947 26.947 0 1 0-38.104-38.104l-37.996 37.996a26.947 26.947 0 0 0-5.847 29.345c0.808 1.914 1.05 2.426 3.368 7.06l0.189 0.432c0.754 1.509 1.24 2.506 1.159 2.263a188.632 188.632 0 0 1-43.601 198.818 187.877 187.877 0 0 1-129.698 55.215 189.736 189.736 0 0 1-73.135-13.15l-2.506-0.97-1.752-0.728a26.947 26.947 0 0 0-21.073 49.61c1.887 0.809 1.887 0.809 3.423 1.402l2.102 0.808a242.068 242.068 0 0 0 93.992 16.896 241.772 241.772 0 0 0 166.723-70.98 242.526 242.526 0 0 0 57.722-250.88l25.007-25.033zM25.869 735.987a26.947 26.947 0 0 0 49.61-21.02 187.284 187.284 0 0 1-14.74-65.374 188.039 188.039 0 0 1 55.054-141.743 188.632 188.632 0 0 1 44.463-33.037 26.947 26.947 0 1 0-25.411-47.536 242.526 242.526 0 0 0-57.129 42.47A241.907 241.907 0 0 0 6.9 651.965a243.443 243.443 0 0 0 18.97 84.022z m224.337-337.274a26.947 26.947 0 0 0-0.215 53.895 189.17 189.17 0 0 1 61.79 10.644c4.366 1.51 7.168 2.21 10.94 1.563a26.947 26.947 0 0 0 18.81-7.895l33.145-33.146a26.947 26.947 0 0 0-38.103-38.13l-21.99 22.016a243.308 243.308 0 0 0-64.377-8.947zM148.48 818.176a26.947 26.947 0 1 0 38.104 38.104l161.792-161.82a26.947 26.947 0 0 0 7.087-25.6l-22.986-91.35a26.947 26.947 0 0 0-19.564-19.565L221.56 534.96a26.947 26.947 0 0 0-25.6 7.06L30.343 707.638a26.947 26.947 0 1 0 38.13 38.103L223.26 590.956l60.901 15.306 15.306 60.9L148.48 818.177z"  horiz-adv-x="1024" />

    
    <glyph glyph-name="jiazai" unicode="&#58912;" d="M614.4 742.4c0-70.656-57.28-128-128-128s-128 57.344-128 128 57.344 128 128 128 128-57.28 128-128z m143.488-227.648c29.504 0 59.008 11.264 81.472 33.728 44.992 44.992 44.992 117.888 0 162.88-22.528 22.528-52.032 33.728-81.472 33.728s-58.88-11.264-81.344-33.728c-44.992-44.992-44.992-117.888 0-162.88 22.464-22.464 51.968-33.728 81.344-33.728zM870.4 460.864c-56.512-0.064-102.4-45.824-102.4-102.4S813.888 256 870.4 256c56.64 0 102.4 45.888 102.4 102.464-0.064 56.576-45.824 102.4-102.4 102.4zM758.016 176.512c-22.976 0-45.888-8.768-63.36-26.24-35.008-35.008-35.008-91.776 0-126.72 17.472-17.472 40.384-26.24 63.36-26.24 22.848 0 45.888 8.768 63.36 26.368 35.008 34.88 35.008 91.648 0 126.656-17.472 17.408-40.512 26.176-63.36 26.176zM486.528 51.264c-42.432 0-76.8-34.496-76.8-76.864 0-42.496 34.368-76.736 76.864-76.736 42.368 0 76.736 34.368 76.736 76.736s-34.432 76.864-76.8 76.864zM214.912 150.72c-16.384 0-32.768-6.272-45.312-18.752-25.024-25.024-25.024-65.472 0-90.496 12.48-12.48 28.864-18.752 45.248-18.752s32.768 6.272 45.312 18.752c24.96 25.024 25.024 65.6 0 90.496-12.416 12.544-28.864 18.752-45.248 18.752zM102.4 409.536c-28.288 0-51.2-22.848-51.2-51.2 0-28.224 22.848-51.2 51.2-51.2 28.288 0 51.264 22.912 51.2 51.2 0.064 28.352-22.912 51.2-51.2 51.2z m112.448 182.016c2.432 0 4.8 0.96 7.232 1.408 7.232 1.408 14.272 4.224 19.904 9.856 15.04 14.976 14.976 39.296 0 54.336a38.548 38.548 0 0 1-27.136 11.2c-9.856 0-19.648-3.776-27.2-11.264-14.976-14.976-14.976-39.296 0-54.272 7.488-7.552 17.344-11.264 27.2-11.264z"  horiz-adv-x="1024" />

    
    <glyph glyph-name="Google-center" unicode="&#58945;" d="M453.62543607 533.110154c7.483077-57.107692 48.836923-104.448 92.317538-105.787077 43.480615-1.339077 72.704 43.953231 65.142154 101.060923C603.60205107 585.4916920000001 562.24820507 631.335385 518.76759007 632.674462c-43.480615 1.260308-72.625231-42.456615-65.142154-99.564308zM532.55220507 896c-282.781538 0-512-229.218462-512-512s229.218462-512 512-512 512 229.218462 512 512-229.218462 512-512 512z m176.128-239.458462l-37.809231-27.332923h-53.563077C652.91159007 615.581538 671.81620507 574.2276919999999 671.81620507 531.771077c0-35.682462-19.771077-66.323692-47.655384-88.142769-27.254154-21.267692-32.374154-30.168615-32.374154-48.285539 0-15.438769 29.223385-41.747692 44.425846-52.539077 44.583385-31.586462 59.076923-60.809846 59.076923-109.725538 0-60.967385-59.076923-121.619692-165.888-121.619692-93.735385 0-172.898462 38.124308-172.898462 99.091692 0 61.912615 72.152615 121.619692 165.888 121.619692 10.24 0 19.613538 0.315077 29.302154 0.315077-12.839385 12.445538-23.000615 27.805538-23.000615 46.631385 0 11.185231 3.544615 21.976615 8.585846 31.507692-5.12-0.393846-10.318769-0.472615-15.675077-0.472615-77.036308 0-128.630154 54.823385-128.630154 122.643692C392.89435907 599.197538 464.18051307 656.541538 539.87774407 656.541538h168.802461zM540.19282107 316.41600000000005c-64.827077 0.708923-122.88-39.542154-122.88-87.827692 0-49.309538 46.788923-90.269538 111.616-90.269539 91.136 0 122.88 38.518154 122.88 87.748923 0 5.907692-0.708923 11.736615-2.048 17.408-7.089231 27.884308-32.374154 41.668923-67.505231 66.166154-12.839385 4.174769-26.939077 6.616615-42.062769 6.774154z"  horiz-adv-x="2773" />

    
    <glyph glyph-name="weibiaoti-" unicode="&#58911;" d="M522.4 456.6m-108.2 0a108.2 108.2 0 1 1 216.4 0 108.2 108.2 0 1 1-216.4 0ZM875.8 598.6c0-59.8-48.4-108.2-108.2-108.2-59.8 0-108.2 48.4-108.2 108.2 0 59.8 48.4 108.2 108.2 108.2 59.8 0 108.2-48.6 108.2-108.2zM474.2 332.20000000000005s75.2 1 106.2 0.2c31.2-1 86-70.6 86-115 0-44.4 3.2-175.4-2.8-184-6-8.6-4.6-33.2-134-33-61 0.2-147.8-5.4-151.4 44.2 0 51.8-0.2 151.4-0.8 175.6-0.6 22.2 44 112 96.8 112zM727.2 477.4s75.2 1 106.2 0.2c31.2-1 86-70.6 86-115 0-44.4 3.2-175.4-2.8-184-6-8.6-4.6-33.2-134-33-61 0.2-82.2 7-85.8 56.4 0 25.8 2 57.6-15 91.8-17 34.2-51 59.2-51.4 71.4-0.2 11 14.8 30.8 20 41.8 21.4 44.2 50.6 70.4 76.8 70.4zM278.2 598.6m-108.2 0a108.2 108.2 0 1 1 216.4 0 108.2 108.2 0 1 1-216.4 0ZM318.6 477.4s-75.2 1-106.2 0.2c-31.2-1-86-70.6-86-115 0-44.4-3.2-175.4 2.8-184 6-8.6 4.6-33.2 134-33 61 0.2 81.2 2.6 84.8 52 0 25.8-1 62 16 96.4 17 34.2 51 59.2 51.4 71.4 0.4 11-14.8 30.8-20 41.8-21.4 44-50.4 70.2-76.8 70.2z"  horiz-adv-x="1024" />

    
    <glyph glyph-name="pailie2" unicode="&#59046;" d="M341.290525 728.39179 170.576445 728.39179c-70.726831 0-128.060631-55.512315-128.060631-124.014478l0-144.669914c0-68.500117 57.3338-124.001175 128.060631-124.001175l170.71408 0c70.736041 0 128.069841 55.501058 128.069841 124.001175L469.360366 604.377312C469.359342 672.879476 412.026566 728.39179 341.290525 728.39179zM405.32391 439.02024c0-22.785959-19.102057-41.314964-42.682102-41.314964L149.223115 397.705276c-23.569812 0-42.672892 18.529005-42.672892 41.314964l0 186.026834c0 22.844288 19.102057 41.333384 42.672892 41.333384l213.418694 0c23.581068 0 42.682102-18.489096 42.682102-41.333384L405.32391 439.02024zM341.290525 273.702054 170.576445 273.702054c-70.726831 0-128.060631-55.524594-128.060631-124.005268l0-144.66889c0-68.50114 57.3338-123.985826 128.060631-123.985826l170.71408 0c70.736041 0 128.069841 55.484685 128.069841 123.985826L469.360366 149.698832C469.359342 218.179506 412.026566 273.702054 341.290525 273.702054zM405.32391-15.620377c0-22.846334-19.102057-41.377386-42.682102-41.377386L149.223115-56.997764c-23.569812 0-42.672892 18.529005-42.672892 41.377386L106.550223 170.364501c0 22.829961 19.102057 41.337477 42.672892 41.337477l213.418694 0c23.581068 0 42.682102-18.508539 42.682102-41.337477L405.32391-15.620377zM941.251879 601.275671 538.323017 601.275671c-11.721973 0-21.206998 9.494235-21.206998 21.245883l0 21.202904c0 11.730159 9.485025 21.222347 21.206998 21.222347l402.928862 0c11.721973 0 21.208021-9.492188 21.208021-21.222347l0-21.202904C962.4599 610.770929 952.973852 601.275671 941.251879 601.275671L941.251879 601.275671zM941.251879 389.045035 538.323017 389.045035c-11.721973 0-21.206998 9.492188-21.206998 21.203928l0 21.24179c0 11.732206 9.485025 21.223371 21.206998 21.223371l402.928862 0c11.721973 0 21.208021-9.492188 21.208021-21.223371l0-21.24179C962.4599 398.537224 952.973852 389.045035 941.251879 389.045035L941.251879 389.045035zM941.251879 155.610472 538.323017 155.610472c-11.721973 0-21.206998 9.493212-21.206998 21.222347l0 21.182438c0 11.732206 9.485025 21.222347 21.206998 21.222347l402.928862 0c11.721973 0 21.208021-9.490142 21.208021-21.222347l0-21.182438C962.4599 165.103684 952.973852 155.610472 941.251879 155.610472L941.251879 155.610472zM941.251879-56.62221 538.323017-56.62221c-11.721973 0-21.206998 9.490142-21.206998 21.222347L517.116019-14.217425c0 11.732206 9.485025 21.222347 21.206998 21.222347l402.928862 0c11.721973 0 21.208021-9.490142 21.208021-21.222347L962.4599-35.399863C962.4599-47.128999 952.973852-56.62221 941.251879-56.62221L941.251879-56.62221z"  horiz-adv-x="1024" />

    
    <glyph glyph-name="pailiemoshiliebiao" unicode="&#59112;" d="M816.5 703.5l-608 0c-8.837 0-16-7.163-16-16l0-32c0-8.837 7.163-16 16-16l608 0c8.837 0 16 7.163 16 16l0 32C832.5 696.337 825.337 703.5 816.5 703.5zM816.5 417.417l-608 0c-8.837 0-16-7.163-16-16l0-32c0-8.837 7.163-16 16-16l608 0c8.837 0 16 7.163 16 16l0 32C832.5 410.253 825.337 417.417 816.5 417.417zM816.5 127.5l-608 0c-8.837 0-16-7.163-16-16l0-32c0-8.837 7.163-16 16-16l608 0c8.837 0 16 7.163 16 16l0 32C832.5 120.337 825.337 127.5 816.5 127.5z"  horiz-adv-x="1024" />

    
    <glyph glyph-name="dianhuaji" unicode="&#58908;" d="M512 518.4c-224 0-422.4-153.6-499.2-384C0 96 6.4 64 32 32 51.2 0 89.6 0 128 0l774.4 0c38.4 0 70.4 0 96 32 25.6 32 32 64 19.2 108.8C940.8 371.2 736 518.4 512 518.4zM947.2 70.4c-12.8-12.8-25.6-6.4-44.8-6.4L128 64c-19.2 0-32-12.8-44.8 6.4C64 89.6 64 96 70.4 121.6 140.8 326.4 320 460.8 512 460.8s377.6-128 441.6-332.8C966.4 102.4 960 89.6 947.2 70.4zM512 422.4c-96 0-179.2-83.2-179.2-179.2S416 64 512 64s179.2 83.2 179.2 179.2S614.4 422.4 512 422.4zM512 121.6c-64 0-121.6 51.2-121.6 121.6S448 358.4 512 358.4c64 0 121.6-51.2 121.6-121.6S582.4 121.6 512 121.6zM998.4 665.6c-64 57.6-134.4 102.4-211.2 128-172.8 70.4-364.8 70.4-537.6 0C172.8 768 96 723.2 32 665.6 19.2 652.8 0 633.6 0 614.4l0-64C0 505.6 51.2 448 89.6 448l128 0C236.8 448 256 467.2 268.8 480c12.8 12.8 19.2 44.8 19.2 64 0 19.2 0 57.6 0 76.8 0 6.4 0 12.8 6.4 12.8 140.8 57.6 300.8 57.6 441.6 0 6.4 0 6.4-6.4 6.4-12.8 0-25.6 0-64 0-76.8 0-19.2 6.4-51.2 19.2-64C780.8 467.2 800 448 819.2 448l128 0C992 448 1024 505.6 1024 550.4l0 64C1024 633.6 1011.2 652.8 998.4 665.6zM960 550.4C960 537.6 953.6 512 947.2 512l-128 0c-6.4 0-6.4 12.8-12.8 12.8 0 0-6.4 12.8-6.4 19.2 0 12.8 0 51.2 0 76.8 0 32-19.2 57.6-44.8 70.4-76.8 32-160 51.2-243.2 51.2-83.2 0-166.4-19.2-243.2-51.2C249.6 678.4 230.4 652.8 230.4 620.8c0-19.2 0-64 0-76.8 0-6.4 0-19.2-6.4-19.2 0 0-6.4-12.8-12.8-12.8l-128 0C83.2 512 64 537.6 64 550.4l0 64c0 6.4 6.4 6.4 12.8 12.8 57.6 51.2 128 89.6 198.4 121.6 153.6 64 332.8 64 492.8 0C832 716.8 896 672 960 620.8c0 0 0-6.4 0-12.8L960 550.4z"  horiz-adv-x="1024" />

    
    <glyph glyph-name="chuanzhen1" unicode="&#58909;" d="M518.4 320h-64c-12.8 0-19.2-6.4-19.2-19.2 0-12.8 6.4-19.2 19.2-19.2h64c12.8 0 19.2 6.4 19.2 19.2 0 12.8-6.4 19.2-19.2 19.2z m0-96h-64c-12.8 0-19.2-6.4-19.2-19.2 0-12.8 6.4-19.2 19.2-19.2h64c12.8 0 19.2 12.8 19.2 19.2 0 6.4-6.4 19.2-19.2 19.2z m192 473.6H499.2c-12.8 0-19.2-6.4-19.2-19.2s6.4-19.2 19.2-19.2h211.2c12.8 0 19.2 6.4 19.2 19.2s-6.4 19.2-19.2 19.2z m0 83.2H499.2c-12.8 0-19.2-6.4-19.2-19.2 0-12.8 6.4-19.2 19.2-19.2h211.2c12.8 0 19.2 12.8 19.2 19.2 0 12.8-6.4 19.2-19.2 19.2z m51.2-256H448c-12.8 0-19.2-12.8-19.2-25.6v-140.8c0-12.8 6.4-19.2 19.2-19.2h320c12.8 0 19.2 12.8 19.2 19.2V499.2c-6.4 12.8-12.8 25.6-25.6 25.6z m-19.2-147.2H467.2V480h275.2v-102.4zM640 224H576c-12.8 0-19.2-6.4-19.2-19.2 0-12.8 6.4-19.2 19.2-19.2h64c12.8 0 19.2 12.8 19.2 19.2 0 6.4-12.8 19.2-19.2 19.2zM755.2 320h-64c-12.8 0-19.2-12.8-19.2-19.2 0-12.8 6.4-19.2 19.2-19.2h64c12.8 0 19.2 6.4 19.2 19.2 0 12.8-6.4 19.2-19.2 19.2zM896 678.4c-19.2 19.2-44.8 32-76.8 32V864c0 12.8-6.4 19.2-19.2 19.2h-384c-12.8 0-19.2-6.4-19.2-19.2v-153.6h-38.4c-6.4 12.8-19.2 25.6-25.6 38.4-19.2 19.2-51.2 32-76.8 32h-44.8c-57.6 0-108.8-51.2-108.8-108.8v-492.8c0-32 12.8-57.6 32-76.8 19.2-19.2 38.4-25.6 64-32-6.4-6.4-6.4-12.8-12.8-25.6-12.8-25.6-32-51.2-25.6-89.6 6.4-25.6 19.2-44.8 44.8-57.6 12.8-6.4 32-12.8 44.8-12.8 19.2 0 32 6.4 44.8 12.8 19.2 12.8 38.4 32 44.8 57.6 6.4 32-6.4 64-25.6 89.6-6.4 6.4-6.4 12.8-12.8 19.2h518.4c57.6 0 108.8 51.2 108.8 108.8V595.2c0 32-12.8 64-32 83.2zM268.8-64c-6.4-6.4-19.2-6.4-25.6-6.4-6.4 0-19.2 0-25.6 6.4-12.8 6.4-19.2 12.8-19.2 32-6.4 12.8 6.4 32 19.2 51.2 6.4 12.8 19.2 25.6 19.2 44.8h12.8c6.4-12.8 12.8-25.6 19.2-44.8 12.8-19.2 25.6-38.4 19.2-57.6 0-12.8-6.4-19.2-19.2-25.6z m25.6 236.8c0-12.8-6.4-19.2-12.8-25.6-6.4-6.4-12.8-6.4-25.6-12.8h-44.8c-6.4 0-12.8 0-19.2 6.4l-6.4 6.4c-6.4 6.4-12.8 19.2-12.8 25.6V665.6c0 12.8 6.4 19.2 12.8 32 0 6.4 12.8 12.8 25.6 12.8H256c12.8 0 19.2-6.4 25.6-12.8 6.4-6.4 12.8-19.2 12.8-25.6v-499.2zM435.2 838.4h345.6v-243.2H435.2V838.4z m422.4-665.6c0-19.2-19.2-38.4-38.4-38.4H358.4c0 6.4 6.4 19.2 6.4 32V640h25.6v-64c0-12.8 6.4-19.2 19.2-19.2h384c12.8 0 19.2 12.8 19.2 19.2V640c12.8 0 19.2-6.4 25.6-12.8 6.4-6.4 12.8-19.2 12.8-25.6v-428.8h6.4zM640 320H576c-19.2 0-25.6-6.4-25.6-19.2 0-12.8 6.4-19.2 19.2-19.2h64c12.8 0 19.2 6.4 19.2 19.2 6.4 12.8-6.4 19.2-12.8 19.2z m115.2-96h-64c-12.8 0-19.2-6.4-19.2-19.2 0-12.8 6.4-19.2 19.2-19.2h64c12.8 0 19.2 12.8 19.2 19.2 0 6.4-6.4 19.2-19.2 19.2z"  horiz-adv-x="1024" />

    
    <glyph glyph-name="dizhi" unicode="&#58910;" d="M512.706-94.405H512c-16.62 0-32.696 6.894-44.108 18.916-9.013 9.441-90.886 95.915-172.292 205.435-109.92 147.88-165.654 265.774-165.654 350.408 0 210.665 171.389 382.054 382.054 382.054 210.662 0 382.048-171.388 382.048-382.053 0-51.21-19.694-113.914-58.537-186.374-37.454-69.867-93.787-151.036-167.436-241.25l-0.611-0.725-109.623-125.58c-11.617-13.254-28.055-20.831-45.136-20.831z m-0.704 899.31c-178.958 0-324.552-145.593-324.552-324.551 0-70.993 53.357-180.3 154.3-316.104 80.719-108.593 164.276-196.408 167.794-200.092a3.31 3.31 0 0 1 2.458-1.06h0.704c0.255 0 1.075 0.299 1.854 1.188l109.275 125.18c71.17 87.21 125.334 165.157 160.996 231.683 34.316 64.015 51.716 117.579 51.716 159.206 0 178.957-145.59 324.55-324.545 324.55z m0-503.395c-98.615 0-178.844 80.229-178.844 178.844 0 98.614 80.229 178.843 178.844 178.843s178.843-80.229 178.843-178.843c0-98.615-80.229-178.844-178.843-178.844z m0 300.184c-66.907 0-121.341-54.433-121.341-121.34 0-66.907 54.434-121.34 121.34-121.34 66.908 0 121.34 54.433 121.34 121.34 0 66.907-54.432 121.34-121.34 121.34z"  horiz-adv-x="1024" />

    
    <glyph glyph-name="xiazai16" unicode="&#58907;" d="M768 512C732.672 512 704 483.328 704 448 704 412.672 732.672 384 768 384 803.328 384 832 412.672 832 448 832 483.328 803.328 512 768 512L768 512ZM512 64C474.624 64 438.528 68.352 403.84 75.744L253.184-14.816 255.2 133.632C139.712 203.072 64 317.888 64 448 64 660.064 264.576 832 512 832 759.424 832 960 660.064 960 448 960 235.904 759.424 64 512 64L512 64ZM512 896C229.248 896 0 695.392 0 448 0 306.592 75.04 180.672 192 98.592L192-128 416.288 8.096C447.328 2.976 479.264 0 512 0 794.752 0 1024 200.576 1024 448 1024 695.392 794.752 896 512 896L512 896ZM256 512C220.672 512 192 483.328 192 448 192 412.672 220.672 384 256 384 291.328 384 320 412.672 320 448 320 483.328 291.328 512 256 512L256 512ZM512 512C476.672 512 448 483.328 448 448 448 412.672 476.672 384 512 384 547.328 384 576 412.672 576 448 576 483.328 547.328 512 512 512L512 512Z"  horiz-adv-x="1024" />

    
    <glyph glyph-name="upload" unicode="&#59022;" d="M600.989176 162.330331C569.513691 162.330331 543.968467 187.815676 543.932546 219.254166L543.36707 713.644893C494.339088 667.885503 396.403891 576.479248 396.403891 576.479248 373.434921 555.041581 337.436282 556.282913 315.998598 579.251834 294.560914 602.220772 295.80223 638.219427 318.7712 659.657094L550.656163 876.083119C579.096218 902.627068 623.672401 902.650847 652.137813 876.083119L884.022938 659.657094C906.991746 638.219427 908.233224 602.220772 886.79554 579.251834 865.357857 556.282913 829.359218 555.041581 806.390248 576.479248 806.390248 576.479248 706.630217 669.588561 656.66048 716.227064L656.66048 219.262147C656.66048 187.819577 631.095426 162.330331 599.668866 162.330331L600.989176 162.330331 600.989176 162.330331 600.989176 162.330331ZM113.777778-6.095238 113.777778 375.873016C113.777778 407.291888 88.30781 432.761905 56.888889 432.761905 25.469968 432.761905 0 407.291888 0 375.873016L0-38.565758C0-83.470515 36.483657-119.873016 81.402961-119.873016L1137.644658-119.873016C1182.602159-119.873016 1219.047619-83.419624 1219.047619-38.565758L1219.047619 375.873016C1219.047619 407.291888 1193.577651 432.761905 1162.15873 432.761905 1130.73981 432.761905 1105.269841 407.291888 1105.269841 375.873016L1105.269841-6.095238 113.777778-6.095238 113.777778-6.095238Z"  horiz-adv-x="1220" />

    
    <glyph glyph-name="wenhao" unicode="&#58993;" d="M512 814.592a422.4 422.4 0 1 1 422.4-422.4A422.4 422.4 0 0 1 512 814.592z m26.624-629.76a45.056 45.056 0 0 0-31.232-12.288 42.496 42.496 0 0 0-31.232 12.8 41.984 41.984 0 0 0-12.8 30.72 39.424 39.424 0 0 0 12.8 30.72 42.496 42.496 0 0 0 31.232 12.288 43.008 43.008 0 0 0 31.744-12.288 39.424 39.424 0 0 0 12.8-30.72 43.008 43.008 0 0 0-13.312-31.744z m87.04 235.52a617.472 617.472 0 0 0-51.2-47.104 93.184 93.184 0 0 1-25.088-31.232 80.896 80.896 0 0 1-9.728-39.936v-10.24H475.648v10.24a119.808 119.808 0 0 0 12.288 57.344A311.296 311.296 0 0 0 555.52 435.2l10.24 11.264a71.168 71.168 0 0 1 16.896 44.032A69.632 69.632 0 0 1 563.2 537.6a69.632 69.632 0 0 1-51.2 17.92 67.072 67.072 0 0 1-58.88-26.112 102.4 102.4 0 0 1-16.384-61.44h-61.44a140.288 140.288 0 0 0 37.888 102.4 140.8 140.8 0 0 0 104.96 38.4 135.68 135.68 0 0 0 96.256-29.184 108.032 108.032 0 0 0 36.352-86.528 116.736 116.736 0 0 0-25.088-73.216z"  horiz-adv-x="1024" />

    
    <glyph glyph-name="lajitong" unicode="&#58904;" d="M380.565633 811.831102C391.492953 822.758423 412.883938 831.616766 428.328892 831.616766L596.182087 831.616766C611.633685 831.616766 633.010015 822.766433 643.945345 811.831102L680.111776 775.664671 344.399202 775.664671 380.565633 811.831102ZM875.944112 719.712575C891.394856 719.712575 903.92016 732.237878 903.92016 747.688623 903.92016 763.139367 891.394856 775.664671 875.944112 775.664671L148.566866 775.664671C133.116122 775.664671 120.590818 763.139367 120.590818 747.688623 120.590818 732.237878 133.116122 719.712575 148.566866 719.712575L875.944112 719.712575ZM180.539492 663.760479 180.254748 667.746901 228.640985 719.712575 232.637564 719.712575 280.347765 51.769758C282.63628 19.730546 312.053012-7.664671 344.377659-7.664671L680.133319-7.664671C712.845805-7.664671 741.848496 19.363718 744.163214 51.769758L791.873414 719.712575 795.869993 719.712575 844.25623 667.746901 843.971486 663.760479 180.539492 663.760479ZM847.968064 719.712575 799.973118 47.783336C795.578506-13.741242 742.362215-63.616766 680.133319-63.616766L344.377659-63.616766C282.586578-63.616766 228.909839-13.424372 224.53786 47.783336L176.542914 719.712575 847.968064 719.712575ZM484.279441 132.215569C484.279441 116.764824 496.804744 104.239521 512.255489 104.239521 527.706234 104.239521 540.231537 116.764824 540.231537 132.215569L540.231537 523.88024C540.231537 539.330984 527.706234 551.856287 512.255489 551.856287 496.804744 551.856287 484.279441 539.330984 484.279441 523.88024L484.279441 132.215569ZM607.198225 135.399043C605.851604 120.007093 617.237593 106.437801 632.629543 105.091179 648.021493 103.744558 661.590785 115.130547 662.937406 130.522497L697.073232 520.696765C698.419853 536.088715 687.033864 549.658008 671.641914 551.004629 656.249965 552.35125 642.680672 540.965261 641.334051 525.573312L607.198225 135.399043ZM361.573572 130.522497C362.920193 115.130547 376.489486 103.744558 391.881435 105.091179 407.273385 106.437801 418.659374 120.007093 417.312753 135.399043L383.176927 525.573312C381.830306 540.965261 368.261013 552.35125 352.869064 551.004629 337.477114 549.658008 326.091125 536.088715 327.437746 520.696765L361.573572 130.522497Z"  horiz-adv-x="1024" />

    
    <glyph glyph-name="xiala2-01" unicode="&#58925;" d="M503.074 322.551c9.364-9.42 22.331-15.25 36.659-15.25s27.295 5.83 36.657 15.248l369.709 370.495c9.392 9.441 15.198 22.457 15.198 36.83s-5.806 27.389-15.2 36.832c-9.36 9.422-22.327 15.255-36.657 15.255-14.33 0-27.297-5.833-36.656-15.255l-333.068-333.775-333.064 333.773c-9.362 9.424-22.33 15.257-36.659 15.257s-27.297-5.833-36.656-15.255c-9.385-9.448-15.183-22.463-15.183-36.833 0-14.369 5.799-27.384 15.184-36.833l369.738-370.489zM872.781 445.422l-333.065-333.763-333.064 333.764c-9.362 9.424-22.33 15.257-36.659 15.257s-27.297-5.833-36.656-15.255c-9.384-9.446-15.182-22.458-15.182-36.824 0-14.366 5.798-27.379 15.182-36.824l369.729-370.489c9.366-9.416 22.332-15.243 36.659-15.243s27.293 5.827 36.657 15.241l369.743 370.494c9.379 9.444 15.176 22.456 15.176 36.821s-5.797 27.378-15.179 36.824c-9.365 9.421-22.336 15.253-36.669 15.253-14.333 0-27.304-5.832-36.669-15.254z"  horiz-adv-x="1079" />

    
    <glyph glyph-name="bulk-operate" unicode="&#59258;" d="M457.6 771.2c-12.8 12.8-28.8 12.8-41.6 0L201.6 553.6l-96 96c-9.6 16-25.6 16-38.4 3.2s-12.8-28.8 0-41.6l115.2-118.4c3.2-3.2 3.2-3.2 6.4-3.2l3.2-3.2c3.2 0 6.4-3.2 9.6-3.2s6.4 0 9.6 3.2c0 0 3.2 0 3.2 3.2 3.2 0 3.2 3.2 6.4 3.2L454.4 729.6c16 12.8 16 32 3.2 41.6zM940.8 864H563.2c-9.6 0-19.2-9.6-19.2-19.2v-377.6c0-9.6 9.6-19.2 19.2-19.2h377.6c9.6 0 19.2 9.6 19.2 19.2V844.8c0 9.6-9.6 19.2-19.2 19.2zM896 512H608V800h288v-288zM940.8 352H563.2c-9.6 0-19.2-9.6-19.2-19.2v-377.6c0-9.6 9.6-19.2 19.2-19.2h377.6c9.6 0 19.2 9.6 19.2 19.2V332.8c0 9.6-9.6 19.2-19.2 19.2zM896 0H608V288h288v-288zM460.8 352H83.2c-9.6 0-19.2-9.6-19.2-19.2v-377.6c0-9.6 9.6-19.2 19.2-19.2h377.6c9.6 0 19.2 9.6 19.2 19.2V332.8c0 9.6-9.6 19.2-19.2 19.2zM416 0H128V288h288v-288z"  horiz-adv-x="1024" />

    
    <glyph glyph-name="icon_execl" unicode="&#58903;" d="M989.037714 776.338286H588.507429V858.624a37.010286 37.010286 0 0 1-28.013715 36.790857h-7.021714a25.161143 25.161143 0 0 1-9.362286 0L388.388571 866.816l-357.961142-65.974857a32.914286 32.914286 0 0 1-10.532572-4.096 35.693714 35.693714 0 0 1-18.651428-23.405714 25.161143 25.161143 0 0 1 0-9.289143v-755.492572c0.585143-7.021714 2.925714-13.458286 7.021714-18.651428l3.510857-4.096 1.755429-1.755429c1.755429-1.755429 3.437714-3.510857 5.851428-4.681143l4.608-2.340571a19.017143 19.017143 0 0 1 8.192-2.340572l276.187429-53.101714 236.397714-46.738286h8.192a37.741714 37.741714 0 0 1 36.205714 34.450286v85.796572h400.530286a38.4 38.4 0 0 1 33.28 33.28V738.962286c0 19.236571-14.628571 35.620571-33.865143 37.302857z m-572.708571-587.337143c-0.658286-0.585143-1.243429-0.585143-1.828572-0.585143L335.725714 193.024c-6.436571 0-7.606857 4.096-9.362285 8.777143-16.310857 41.472-31.524571 82.944-47.323429 124.342857 0 2.925714-2.267429 5.851429-4.022857 10.532571-8.777143-20.992-17.554286-41.472-25.746286-60.708571l-28.525714-68.900571a8.704 8.704 0 0 0-10.532572-6.436572c-20.48 1.755429-40.301714 2.925714-60.708571 3.510857-8.192 0-9.362286 2.340571-5.851429 9.362286 27.428571 53.686857 54.272 108.617143 81.700572 162.304a21.577143 21.577143 0 0 1 0 22.162286c-25.673143 53.76-49.590857 104.521143-75.337143 158.208-5.193143 10.532571-2.340571 12.288 22.820571 13.458285l40.228572 2.925715c9.362286 0 11.117714 0 13.458286-7.021715 15.213714-39.716571 30.354286-79.945143 45.568-119.661714 0-2.340571 2.340571-5.266286 3.510857-8.777143 17.554286 39.716571 37.302857 86.381714 53.101714 125.513143 7.021714 17.554286 9.362286 18.139429 25.673143 18.724572 16.384 0.585143 37.961143 0 51.419428 2.340571 2.340571 0 5.193143 0 6.363429-1.755429s0-4.096 0-6.436571c-28.525714-57.782857-56.612571-116.224-85.211429-174.006857a23.771429 23.771429 0 0 1 0-23.405714A14957.714286 14957.714286 0 0 0 416.914286 193.097143c1.097143-1.170286 1.097143-2.925714-0.658286-4.022857z m312.32-82.944c0-2.925714-2.340571-5.266286-5.266286-5.266286H588.507429V177.298286H723.382857c2.925714 0 5.266286-2.340571 5.266286-5.266286v-65.974857z m0 123.172571c0-2.925714-2.340571-5.193143-5.266286-5.193143H588.507429V300.470857H723.382857c2.925714 0 5.266286-2.340571 5.266286-5.266286v-65.974857z m0 123.830857c0-2.925714-2.340571-5.266286-5.266286-5.266285H588.507429V424.228571H723.382857c2.925714 0 5.266286-2.340571 5.266286-5.193142v-65.974858z m0 122.587429c0-2.925714-2.340571-5.266286-5.266286-5.266286H588.507429V547.474286H723.382857c2.925714 0 5.266286-2.340571 5.266286-5.266286v-66.56z m0 123.172571c0-2.925714-2.340571-5.266286-5.266286-5.266285H588.507429V670.72H723.382857c2.925714 0 5.266286-2.340571 5.266286-5.266286v-66.56z m216.576-492.763428c0-2.925714-2.340571-5.266286-5.266286-5.266286h-163.474286a5.266286 5.266286 0 0 0-5.266285 5.266286v66.56c0 2.925714 2.340571 5.266286 5.266285 5.266286h163.474286c2.925714 0 5.266286-2.340571 5.266286-5.266286v-66.56z m0 123.172571c0-2.925714-2.340571-5.193143-5.266286-5.193143h-163.474286a5.266286 5.266286 0 0 0-5.266285 5.193143v66.56c0 2.925714 2.340571 5.266286 5.266285 5.266286h163.474286c2.925714 0 5.266286-2.340571 5.266286-5.266286v-66.56z m0 123.830857c0-2.925714-2.340571-5.266286-5.266286-5.266285h-163.474286a5.266286 5.266286 0 0 0-5.266285 5.266285v65.974858c0 2.925714 2.340571 5.193143 5.266285 5.193142h163.474286c2.925714 0 5.266286-2.340571 5.266286-5.193142v-65.974858z m0 122.587429c0-2.925714-2.340571-5.266286-5.266286-5.266286h-163.474286a5.266286 5.266286 0 0 0-5.266285 5.266286v66.56c0 2.925714 2.340571 5.266286 5.266285 5.266286h163.474286c2.925714 0 5.266286-2.340571 5.266286-5.266286v-66.56z m0 123.172571c0-2.925714-2.340571-5.266286-5.266286-5.266285h-163.474286a5.266286 5.266286 0 0 0-5.266285 5.266285v66.56c0 2.925714 2.340571 5.266286 5.266285 5.266286h163.474286c2.925714 0 5.266286-2.340571 5.266286-5.266286v-66.56z"  horiz-adv-x="1024" />

    
    <glyph glyph-name="pdf" unicode="&#58924;" d="M479.08864 422.92736c-20.992-56.59136-47.96928-110.64832-77.07648-163.48672a1221.7856 1221.7856 0 0 0 170.99264 48.68096c-37.2224 33.05984-69.0688 71.59808-93.91616 114.80576zM478.58176 702.83776c-9.12896-47.86688-5.2736-97.25952 6.99904-144.31744 18.05312 46.04416 23.32672 102.23104-6.99904 144.31744zM216.71936 79.42144c40.97536 28.39552 68.5568 70.38464 94.62272 111.96416-37.42208-31.84128-72.50944-67.54304-94.62272-111.96416zM910.14656 896H116.20352C55.90528 893.27104 4.1728 842.29632 0 782.22336v-797.88544C5.15584-74.29632 54.76352-123.7504 113.62816-128h798.11584c58.63424 5.15584 108.08832 54.91712 112.26112 113.69984V783.66208C1018.84416 842.44992 969.08288 891.8272 910.14656 896z m-104.18688-676.31616c-65.92-3.34848-125.35296 29.51168-184.58112 53.24288-81.54112-5.78048-160.84992-30.42304-238.83776-53.95456-35.18976-57.50272-67.24096-121.6-124.2368-160.54272-28.39552-22.41536-94.21824-3.85536-79.5136 39.6544 24.74496 60.34432 86.30784 93.40416 140.46208 123.72992 15.51872 7.808 24.44288 23.22432 32.35328 38.03136 37.0176 70.89152 73.9328 141.88544 103.85408 216.22272-15.41632 69.16608-37.82656 140.2624-25.86112 211.86048 4.97152 30.62784 44.11904 36.51072 68.4544 27.07968 15.31392-9.63584 22.81984-28.09344 23.22432-45.63968 1.72544-53.95456-7.9104-107.40224-15.7184-160.64512-4.15744-24.94976 10.84928-46.95552 21.70368-68.04992 26.77248-49.48992 64.09728-94.11584 113.38752-122.41408 59.02336 7.19872 121.3952 16.0256 179.20512-3.04128 43.30496-14.80704 32.95744-94.8224-13.89568-95.53408zM704.8448 287.83616c38.84544-18.3552 80.93184-38.03136 124.84608-26.2656-30.32576 36.51072-83.16416 26.368-124.84608 26.2656z"  horiz-adv-x="1024" />

    
    <glyph glyph-name="user" unicode="&#58901;" d="M504.951 384.02c93.49 0 169.28 74.002 169.28 165.26 0 91.276-75.79 165.248-169.28 165.248-93.486 0-169.287-73.972-169.279-165.248-0.001-91.258 75.793-165.26 169.28-165.26z m77.6-55.098H441.466c-120.767 0-218.678-95.564-218.678-213.45V101.70000000000005c0-48.183 97.911-48.229 218.678-48.229H582.55c120.754 0 218.66 1.78 218.66 48.229v13.77c0 117.887-97.898 213.45-218.66 213.45z"  horiz-adv-x="1024" />

    
    <glyph glyph-name="copy" unicode="&#58900;" d="M904.32 672.42666666l-173.01333333 177.06666667C720.32 860.8 705.17333333 867.2 689.6 867.2L351.14666667 867.2c-18.24 0-35.84-6.72-49.6-18.88-11.84-10.45333333-20.16-24.32-24-39.68l-63.89333334 0c-61.33333333 0-111.25333333-51.09333333-111.25333333-113.81333334l0-669.44c0-62.82666667 49.92-113.81333333 111.25333333-113.81333333L755.2-88.42666667000003c61.33333333 0 111.25333333 51.09333333 111.25333333 113.81333333l0 66.98666667c32.32 9.28 55.14666667 39.57333333 55.14666667 74.56L921.6 629.76C921.6 645.76 915.52 660.90666666 904.32 672.42666666zM725.54666667 843.62666666l86.50666666-88.53333333L725.54666667 843.62666666c-1.06666667 1.17333333-2.24 2.24-3.41333334 3.2C723.2 845.76 724.37333333 844.69333333 725.54666667 843.62666666zM830.29333333 653.44L830.29333333 653.44l-71.25333333 72.85333333L830.29333333 653.44zM696 778.98666666l114.56-117.22666666L696 661.76 696 778.98666666zM687.78666667 799.25333333L687.78666667 799.25333333l0-145.81333333 0 0L687.78666667 799.25333333zM184.74666667-75.94666667000001c1.92-0.53333333 3.73333333-1.06666667 5.65333333-1.49333333C188.48-77.01333334000003 186.56-76.48000000000002 184.74666667-75.94666667000001zM213.65333333-80.10666666999998c-4.48 0-8.85333333 0.32-13.12 0.85333333C204.8-79.89333334000003 209.17333333-80.10666666999998 213.65333333-80.10666666999998L213.65333333-80.10666666999998zM792.85333333 25.17333332999999c0-21.12-16.85333333-38.4-37.54666666-38.4L213.65333333-13.226666669999986c-20.69333333 0-37.54666667 17.17333333-37.54666666 38.4L176.10666667 694.6133333299999c0 21.12 16.85333333 38.4 37.54666666 38.4l61.65333334 0 0-566.18666667c0-42.77333333 34.02666667-77.65333333 75.84-77.65333333l441.70666666 0L792.85333333 25.17333332999999zM848 166.93333332999998c0-1.17333333-0.96-2.13333333-2.13333333-2.13333333L351.14666667 164.79999999999995c-1.17333333 0-2.13333333 0.96-2.13333334 2.13333333L349.01333333 789.54666666c0 1.17333333 0.96 2.13333333 2.13333334 2.13333334l267.30666666 0L618.45333333 624c0-20.8 16.53333333-37.76 36.90666667-37.76l32.53333333 0L848 586.24 848 166.93333332999998zM858.34666667 98.98666665999997L858.34666667 98.98666665999997c3.2 0.64 6.4 1.49333333 9.38666666 2.56C864.64 100.37333333000004 861.54666667 99.51999999999998 858.34666667 98.98666665999997zM598.50666667 279.36L483.84 279.36c-20.37333333 0-36.90666667-16.96-36.90666667-37.76s16.53333333-37.76 36.90666667-37.76l114.66666667 0c20.37333333 0 36.90666667 16.96 36.90666666 37.76S618.88 279.36 598.50666667 279.36zM712.32 397.65333333L484.26666667 397.65333333c-20.37333333 0-36.90666667-16.96-36.90666667-37.76 0-20.8 16.53333333-37.76 36.90666667-37.76l228.05333333 0c20.37333333 0 36.90666667 16.96 36.90666667 37.76C749.22666667 380.69333333 732.69333333 397.65333333 712.32 397.65333333zM455.57333333 359.89333333c0 0.64 0 1.38666667 0.10666667 2.02666667C455.57333333 361.28 455.57333333 360.64 455.57333333 359.89333333c0-3.09333333 0.42666667-5.97333333 1.28-8.74666667C456 353.91999999999996 455.57333333 356.90666666000004 455.57333333 359.89333333zM712.32 389.33333333L484.26666667 389.33333333c-1.49333333 0-2.98666667-0.10666667-4.37333334-0.32 1.38666667 0.21333333 2.88 0.32 4.37333334 0.32L712.32 389.33333333c1.38666667 0 2.77333333-0.10666667 4.16-0.32C715.09333333 389.22666666 713.70666667 389.33333333 712.32 389.33333333zM725.33333333 333.86666665999996c1.38666667 0.74666667 2.77333333 1.6 4.05333334 2.56C728.21333333 335.46666666 726.82666667 334.61333333000005 725.33333333 333.86666665999996zM447.36 478.29333333c0-20.8 16.53333333-37.76 36.90666667-37.76l228.05333333 0c20.37333333 0 36.90666667 16.96 36.90666667 37.76s-16.53333333 37.76-36.90666667 37.76L484.26666667 516.05333333C463.89333333 515.94666666 447.36 499.09333333 447.36 478.29333333zM455.68 476.26666666c0 0.64-0.10666667 1.28-0.10666667 2.02666667 0 1.38666667 0.10666667 2.88 0.32 4.16-0.21333333-1.38666667-0.32-2.77333333-0.32-4.16C455.57333333 477.54666666 455.57333333 476.90666666 455.68 476.26666666z"  horiz-adv-x="1024" />

    
    <glyph glyph-name="shiliangzhinengduixiang2" unicode="&#58997;" d="M528.888449 812.000013C321.59882 812.000013 153.308649 640.092009 153.308649 427.9719c0-211.912765 375.5798-639.971875 375.5798-639.971875s375.58357 428.05911 375.58357 639.971875C904.473276 640.092009 736.183105 812.000013 528.888449 812.000013L528.888449 812.000013 528.888449 812.000013zM528.888449 267.92898c-103.74723 0-187.788015 86.055161-187.788015 192.014056 0 105.958896 84.042042 192.014056 187.788015 192.014056 103.749743 0 187.791785-86.055161 187.791785-192.014056C716.680235 353.984141 632.638193 267.92898 528.888449 267.92898L528.888449 267.92898 528.888449 267.92898zM528.888449 267.92898"  horiz-adv-x="1058" />

    
    <glyph glyph-name="shiliangzhinengduixiang2-copy" unicode="&#59616;" d="M528.888449 896.000013C321.59882 896.000013 153.308649 724.092009 153.308649 511.9719c0-211.912765 375.5798-639.971875 375.5798-639.971875s375.58357 428.05911 375.58357 639.971875C904.473276 724.092009 736.183105 896.000013 528.888449 896.000013L528.888449 896.000013 528.888449 896.000013zM528.888449 351.92898c-103.74723 0-187.788015 86.055161-187.788015 192.014056 0 105.958896 84.042042 192.014056 187.788015 192.014056 103.749743 0 187.791785-86.055161 187.791785-192.014056C716.680235 437.984141 632.638193 351.92898 528.888449 351.92898L528.888449 351.92898 528.888449 351.92898zM528.888449 351.92898"  horiz-adv-x="1058" />

    
    <glyph glyph-name="dianhua1-copy-copy" unicode="&#59618;" d="M65.024 443.904c-1.02399999-2.56-1.02399999-5.12-1.024-7.68-1.024-23.03999999 14.336-42.496 36.864-47.104 11.77600001-2.56 24.57599999 0 34.816 6.656s16.896 16.896 19.456 29.184c20.47999999 97.28 76.8 180.736 160.256 235.52s182.784 74.24 280.064 53.76c11.77600001-2.56 24.57599999 0 34.816 6.656s16.896 16.896 19.456 29.184c1.02399999 2.56 1.02399999 5.12 1.024 7.68 0 9.21600001-2.56 18.944-7.68000001 27.136-6.656 10.23999999-16.896 16.896-29.18399999 19.456C363.52 856.57600001 116.73600001 694.784 65.024 443.904z m648.192 120.32c1.53600001 2.56 40.96 64 88.57599999 111.104 17.92 17.92 48.64 47.104 83.45600001 46.08 24.064-1.024 48.64-14.336 74.23999999-41.984 6.656-6.656 64.00000001-67.584 64.00000002-165.376 0-26.624-4.09600001-54.784-12.80000001-81.92-8.704-29.184-22.016-57.856-39.936-87.04-67.584-114.176-154.624-202.24-281.6-285.696C471.04-84.48000000000002 284.16-88.06399999999996 248.32-88.06399999999996c-162.816 1.024-226.816 136.704-233.984 152.064-9.216 21.504-14.336 39.936-14.336 57.344 0 8.704 1.024 16.384 3.58400001 23.04 4.096 15.35999999 16.384 35.84 47.10399999 49.664 40.96 18.944 99.84 36.864 161.28 49.664 64.00000001 12.8 81.92-23.03999999 98.816-57.344l1.02400001-1.536s25.6-61.44 29.69599999-71.68000001c4.09600001-10.24 16.384-16.384 27.136-12.79999999 75.26399999 24.576 152.57600001 62.464 224.256 109.056 70.656 46.08 136.704 100.864 189.43999999 157.696 3.584 4.096 6.144 9.216 6.14400001 15.36l0 1.536c-1.024 6.144-3.584 11.776-8.704 15.36-11.776 9.216-29.184 24.064-43.52 38.4-27.136 29.184-39.936 54.784-39.936 79.36 0 6.65600001 1.024 13.824 2.56 19.456 1.536 6.144 6.656 16.384 14.336 27.648z m-413.696-186.88c-5.12-24.57599999-29.696-40.96-54.784-35.84-22.016 4.096-37.376 24.576-36.864 47.104 0 2.56 0 5.12 1.024 7.68 17.91999999 87.04 68.096 161.28 142.336 210.944 74.24 48.64 162.816 65.536 249.856 47.616 11.77600001-2.56 22.016-9.216 29.184-19.456 5.12-8.704 7.67999999-16.896 7.68-27.136 0-2.56 0-5.12-1.024-7.68-5.12-24.57599999-29.696-40.96-54.784-35.84000001-62.464 12.8-126.464 1.024-180.224-34.81599999-52.736-35.84-89.6-90.624-102.4-152.576z"  horiz-adv-x="1024" />

    
    <glyph glyph-name="dianhua1-copy" unicode="&#59613;" d="M65.024 443.904c-1.02399999-2.56-1.02399999-5.12-1.024-7.68-1.024-23.03999999 14.336-42.496 36.864-47.104 11.77600001-2.56 24.57599999 0 34.816 6.656s16.896 16.896 19.456 29.184c20.47999999 97.28 76.8 180.736 160.256 235.52s182.784 74.24 280.064 53.76c11.77600001-2.56 24.57599999 0 34.816 6.656s16.896 16.896 19.456 29.184c1.02399999 2.56 1.02399999 5.12 1.024 7.68 0 9.21600001-2.56 18.944-7.68000001 27.136-6.656 10.23999999-16.896 16.896-29.18399999 19.456C363.52 856.57600001 116.73600001 694.784 65.024 443.904z m648.192 120.32c1.53600001 2.56 40.96 64 88.57599999 111.104 17.92 17.92 48.64 47.104 83.45600001 46.08 24.064-1.024 48.64-14.336 74.23999999-41.984 6.656-6.656 64.00000001-67.584 64.00000002-165.376 0-26.624-4.09600001-54.784-12.80000001-81.92-8.704-29.184-22.016-57.856-39.936-87.04-67.584-114.176-154.624-202.24-281.6-285.696C471.04-84.48000000000002 284.16-88.06399999999996 248.32-88.06399999999996c-162.816 1.024-226.816 136.704-233.984 152.064-9.216 21.504-14.336 39.936-14.336 57.344 0 8.704 1.024 16.384 3.58400001 23.04 4.096 15.35999999 16.384 35.84 47.10399999 49.664 40.96 18.944 99.84 36.864 161.28 49.664 64.00000001 12.8 81.92-23.03999999 98.816-57.344l1.02400001-1.536s25.6-61.44 29.69599999-71.68000001c4.09600001-10.24 16.384-16.384 27.136-12.79999999 75.26399999 24.576 152.57600001 62.464 224.256 109.056 70.656 46.08 136.704 100.864 189.43999999 157.696 3.584 4.096 6.144 9.216 6.14400001 15.36l0 1.536c-1.024 6.144-3.584 11.776-8.704 15.36-11.776 9.216-29.184 24.064-43.52 38.4-27.136 29.184-39.936 54.784-39.936 79.36 0 6.65600001 1.024 13.824 2.56 19.456 1.536 6.144 6.656 16.384 14.336 27.648z m-413.696-186.88c-5.12-24.57599999-29.696-40.96-54.784-35.84-22.016 4.096-37.376 24.576-36.864 47.104 0 2.56 0 5.12 1.024 7.68 17.91999999 87.04 68.096 161.28 142.336 210.944 74.24 48.64 162.816 65.536 249.856 47.616 11.77600001-2.56 22.016-9.216 29.184-19.456 5.12-8.704 7.67999999-16.896 7.68-27.136 0-2.56 0-5.12-1.024-7.68-5.12-24.57599999-29.696-40.96-54.784-35.84000001-62.464 12.8-126.464 1.024-180.224-34.81599999-52.736-35.84-89.6-90.624-102.4-152.576z"  horiz-adv-x="1024" />

    
    <glyph glyph-name="zhanghu-copy" unicode="&#59614;" d="M235.456 539.7760000000001a286.144 276.544 90 1 1 553.088 0 286.144 276.544 90 1 1-553.088 0ZM692.736 245.24800000000005C624.96 257.664 582.208 165.05600000000004 512 165.05600000000004s-95.872 90.56-180.736 80.192c-128.448-47.04-216.512-148.864-216.512-303.168h794.496c0 154.304-88 256.128-216.512 303.168z"  horiz-adv-x="1024" />

    
    <glyph glyph-name="diqiu1-copy" unicode="&#59615;" d="M504.616 460.618c0.048 0.073 0.117 0.138 0.163 0.213-0.183 0.87-0.331 1.63-0.398 2.172 0.082-0.792 0.168-1.588 0.235-2.385zM674.03 275.63300000000004c0.006 0 0.006 0.008 0.006 0.012-0.023 0.01-0.1 0.01-0.117 0.036 0.025-0.025 0.085-0.025 0.11-0.048z m4.337-0.542c-1.048 0.168-3.405-0.138-4.336 0.542-0.576-1.984 0.291-2.733 4.336-0.542zM513.35 826.798c-243.616 0-441.098-197.481-441.098-441.095 0-243.61 197.482-441.1 441.098-441.1 243.607 0 441.097 197.49 441.097 441.1 0 243.614-197.49 441.095-441.097 441.095zM795.096 654.49c-15.198-0.461-25.778-0.49-37.988-8.916-4.92-3.401-8.26-7.906-14.504-9.657-5.598-1.576-11.641-0.194-17.195-2.078-20.042-6.802-16.867-49.728-43.273-43.244-12.405 3.043-21.147 17.702-27.39 27.274-5.5 8.422-15.515 15.387-8.75 25.927-3.086-0.792-6.376 0.11-9.414-0.467 4.23 9.289 18.418 8.477 20.778 13.225 5.879 11.898-16.184 13.141-22.432 14.79 7.53 8.027 11.342-2.7 18.775-0.878 7.144 1.758-3.77 11.166-8.054 12.223-1.538 0.38-26.69-6.951-12.132 6.077a289598.807 289598.807 0 0 0-53.911 34.374c-3.026-12.746 23.92-19.99 32.72-24.481-1.367-5.264-9.554-12.928-15.822-10.685-5.905 2.118-3.508 11.902-12.424 10.92-6.366-14.802 13.46-10.475 15.302-19.546 2.093-10.334-7.495-5.954-11.182-5.776-0.879 0.046-7.752 7.16-8.122 1.774-0.446-6.395 10.96-3.901 11.765-10.36-13.285-0.537-20.071 4.26-30.887 11.445-12.623 8.378-19.101 7.623-34.568 7.623 4.626 1.9 10.998 3.308 14.954 6.368 2.16 1.672 10.638 9.912 11.197 11.751 2.396 7.938-0.13 7.336-7.725 12.54-6.751 4.618-14.94 12.91-23.12 14.543-29.64 5.917-9.141-26.76-31.64-31.266 0.385-0.02 0.801-0.038 1.132-0.038h-1.289c0.058 0.004 0.104 0.026 0.157 0.038-5.205 0.187-14.96 1.452-18.314-1.297-2.367-1.934-2.566-9.699-5.213-12.51-4.71-5.02-11.73-6.023-17.35-9.643-5.486-3.537-17.58-12.612-20.802-18.767-11.873-22.685 26.753-29.726 41.397-36.356 6.616-2.998 25.953-7.1 29.554-12.106 4.83-6.723-4.163-13.026 5.923-17.752 3.221-1.505 9.864-1.813 12.639 1.305 4.508 5.081-1.833 6.228-2.913 12.097-2.091 11.298 1.355 6.808 7.038 11.007 11.58 8.55 8.972 9.073 4.805 22.697-1.934 6.341-9.233 24.043-2.813 28.725 8.372 6.107 26.226-3.31 32.645-4.098 7.47-0.914 11.712-11.266 15.783-15.5 2.705-2.811 7.541-8.776 12.265-8.13 7.499 1.026 4.361 7.582 8.71 10.606 11.667 8.091 14.74-2.901 19.39-13.895 4.375-10.326 8.514-14.159 16.3-20.782 3.616-3.083 19.462-14.087 17.967-20.87-1.013-4.57-19.115-11.499-23.956-13.033-17.694-5.604-50.887 9.175-54.451-18.884 6.865 2.556 26.391 18.508 32.248 10.947 2.67-3.43-2.118-8.426-0.99-11.833 3.34-10.213 11.217-6.655 19.478-5.004-0.563-0.351-1.14-0.658-1.75-0.931 11.287 5.8 10.113 4.592 15.292 14 1.691 3.073 4.207 10.511 6.589 12.711 8.204 7.547 9.468 2.35 14.55-3.472 1.331-1.534 13.897-19.627 9.424-18.725-14.617 2.931-28.65 2.538-40.772-5.454-6.984-4.613-13.59-10.837-21.93-13.9-2-0.731-16.805-2.134-15.055 0.39 2.555 3.682 11.348 6.118 14.818 10.092-9.617 3.96-17.637-4.784-25.193-9.897-8.018-3.793-9.882-10.863-16.71-17.061-2.98-2.702-8.615-3.162-11.542-6.718-2.839-3.451-3.192-8.879-5.88-12.154-1.888-2.294-6.725-0.909-8.695-4.366-2.566-4.516 2.348-8.71 1.271-11.963-1.973-5.913-13.219-10.93-17.543-15.186a74.812 74.812 0 0 1 1.716 1.706c-4.334-4.548-9.818-7.892-13.202-13.154 1.553-7.428 6.452-25.147 5.086-29.223-4.508-13.411-13.263 7.294-16.814 12.643-12.2 18.382-36.583 6.082-53.24 4.556-21.304-1.949-42.17-29.596-29.03-52.038 6.309-10.762 16.92-14.929 29.092-12.438 10.832 2.218 14.085 17.373 24.286 17.65 18.746 0.5 0.412-18.37-1.21-25.295-1.5-6.415 2.338-7.008 8.941-8.598 4.876-1.165 11.781 2.087 16.008-0.697 2.663-1.758 2.535-11.383 6.197-8.347-7.21-5.977-5.525-20.148 1.867-25.27 8.196-5.685 17.846-0.42 26.428-2.603 16.2-4.134 8.467 1.235 22.694 9.824 9.603 5.787 11.178-1.09 17.74-1.117 4.467-0.019 7.304 6.421 14.772 4.547 6.088-1.533 8.494-6.233 15.762-7.314 2.98-0.44 6.057 1.121 8.898 0.808 13.444-1.494 23.736-10.083 34.33-17.85 8.73-6.392 14.512-5.097 24.71-8.012 7.45-2.123 21.196-12.905 20.492-22.371-0.125-1.693-6.638-10.206-7.751-14.04 1.906-1.32 15.165 1.643 19.045 1.922-1.275-1.484-10.303-7.828-10.303-4.46 0-1.726 6.387-5.272 7.944-6.373 4.71 15.29 12.445 5.451 21.754 1.664 7.915-3.224 17.658-3.397 26.1-5.408 7.166-1.706 22.97-6.545 28.28-12.4 6.392-7.05 1.974-18.502-2.756-25.516-6.187-9.192-15.517-12.73-19.376-23.545-3.05-8.573-0.76-17.235-2.503-26.738-2.356-12.865-4.245-8.355-12.53-16.205-6.971-6.611-0.117-5.462-9.608-9.676-9.533-4.236-17.928-2.976-24.529-13.436 0.264 0.658 0.48 1.317 0.664 2.005-2.786-3.897-4.178-11.88-5.498-14.498-3.328-6.682-7.918-10.897-13.181-16.462-2.017-2.131-20.561-27.465-21.632-25.43-1.377 2.648-15.998-2.658-16.695 1.118 0.581-3.174-0.139-2.11 3.492-3.939-3.362-20.82-12.168-23.925-32.613-24.135 1.758-10.007-7.409-8.01-11.67-13.39-2.49-3.142-3.679-11.976-5.405-16.044-1.078-2.555-9.06-12.794-9.06-14.822-0.009-1.87 2.684-4.607 5.207-7.233-14.414-2.85-29.11-4.838-44.038-6.05 2.795 3.52 3.467 6.613-5.433 7.037 2.382 6.472 7.974 10.163 10.344 16.431 1.124 2.958 0.194 4.127 1.144 7.058 3.257 10.115 1.845 6.3 0.009 14.156-4.301 18.416 1.53 23.453 6.55 40.314 5.153 17.327 4.674 39.789 7.976 58.453 1.566 8.933 4.132 27.517 1.03 35.96-3.495 9.508-18.87 16.996-25.91 23.39-9.969 9.083-15.268 18.897-22.67 30.123-3.757 5.7-8.04 11.296-10.972 17.495-6.27 13.255 0.005 5.366 1.06 13.19 1.01 7.559-0.9 14.315 2.1 22.249 3.32 8.772 11.608 14.238 14.33 23.083 2.45 7.874 0.586 17.77-7.502 20.397-4.508 1.472-9.482-1.919-14.01-1.174-6.317 1.022-13.466 5.738-18.423 9.507-6.919 5.272-9.512 13.839-16.88 18.837-6.169 4.164-10.556 1.672-17.154 3.62-6.882 2.028-11.13 10.52-16.681 13.178-8.33 3.984-13.025-1.737-21.819-0.58-7.478 0.979-18.884 9.267-25.872 12.399-14.209 6.36-22.86 13.38-28.543 27.8-4.866 12.366-11.96 18.134-20.312 28.434-8.463 10.435-11.114 19.328-24.158 22.109-1.532 0.332 3.192-10.955 3.679-11.86 4.661-8.632 11.661-16.515 17.291-24.552 8.284-11.837 4.754-14.058-3.673-2.612-9.636 13.095-20.818 26.115-29.177 39.983-3.16 5.241-2.553 8.63-7.765 13.606-5.036 4.808-11.626 7.15-16.697 11.723-18.246 16.408-21.563 38.313-19.483 61.705 0.676 7.625 3.43 13.723 2.216 21.052-1.002 6.086-4.595 11.118-9.085 15.601-1.446 2.304-5.077 7.978-5.287 8.339-4.142 6.88-7.364 13.647-13.944 19.292-3.776 3.252-13.544 10.853-22.741 17.22 41.322 51.538 95.392 92.38 157.421 117.739 0.494-3.118 1.833-6.231 3.84-9.211 5.1-7.563 9.96-6.965 19.916-9.058-1.067-11.555-14.573-11.647-23.715-10.394-10.913 1.498-22.394 5.123-31.847-4.441 5.221-3.14 19.552-15.366 17.647-2.59 10.454 0.522 20.56 0.835 30.787-0.416 4.098-0.502 17.828-5.11 21.549-3.01 1.562 0.884 3.226 8.588 4.878 10.958-2.915-0.017-6.04 1.455-8.944 1.176 6.772 8.672 13.52 1.87 22.139-2.12-9.49-5.766-3.862-19.584 5.415-8.356 7.621 9.233-1.864 15.927-11.54 21.307 9.757 12.204 15.774 13.305 24.954-0.469 1.513 8.495 8.369 5.095 15.535 4.467v2.125c-3.154-0.076-6.522 1.738-9.644 1.41 7.3 11.648 2.64 14.308 13.076 18.11 8.311 3.026 32.02 0.21 34.941 8.022-16.593-3.225-36.638-3.998-51.608-11.542-6.455-3.253-14.144-13.522-20.59-6.848-6.607 6.848 4.726 17.859 10.524 21.215h-1.388c26.254 5.584 53.443 8.582 81.339 8.582 18.024 0 35.738-1.334 53.126-3.71-6.017-3.16-1.568-5.292-5.95-8.522-8.37-6.155-23.226-11.292-33.185-15.182 12.66 0.034 43.306-11.871 49.204 5.887-4.088 0.628-8.165 1.257-12.248 1.885 7.629 5.059 16.138 9.153 25.072 12.154 80.62-15.971 152.332-56.864 206.883-114.246-0.394 0.009-0.781 0.019-1.158 0.009z m71.39-154.868c0.725 1.55 2.421 2.061 3.121 3.34 1.474 2.69 1.145 4.513 2.96 6.821 1.942 2.495 4.563 3.106 6.73 5.055a7.898 7.898 0 0 1 1.763 2.251 386.672 386.672 0 0 0 15.464-56.207c-0.114-0.138-0.178-0.347-0.32-0.463-0.948-0.75-7.13-1.668-8.4-1.712-4.476-0.172-7.802 2.799-11.016 5.594-3.27 2.84-7.12 6.64-9.444 10.318-2.482 3.928-0.95 7.964-0.772 12.45 0.148 3.773-1.688 9.153-0.087 12.553z m5.047-202.244c-7.577 6.582-16.516 15.406-21.903 23.932-5.754 9.09-2.208 18.446-1.787 28.857 0.35 8.756-3.928 21.216-0.207 29.1 1.709 3.6 5.624 4.79 7.236 7.74 3.426 6.245 2.667 10.466 6.871 15.835 4.51 5.766 10.574 7.185 15.599 11.707 5.263 4.74 5.117 8.48 8.449 14.554 2.438 4.443 8.168 11.85 13.593 15.724a391.752 391.752 0 0 0 4.477-59.123c0-34.76-4.625-68.45-13.19-100.55-7.303 1.883-13.31 7.147-19.138 12.224z"  horiz-adv-x="1024" />

    
    <glyph glyph-name="diqiu1" unicode="&#58902;" d="M504.616 460.618c0.048 0.073 0.117 0.138 0.163 0.213-0.183 0.87-0.331 1.63-0.398 2.172 0.082-0.792 0.168-1.588 0.235-2.385zM674.03 275.633c0.006 0 0.006 0.008 0.006 0.012-0.023 0.01-0.1 0.01-0.117 0.036 0.025-0.025 0.085-0.025 0.11-0.048z m4.337-0.542c-1.048 0.168-3.405-0.138-4.336 0.542-0.576-1.984 0.291-2.733 4.336-0.542zM513.35 826.798c-243.616 0-441.098-197.481-441.098-441.095 0-243.61 197.482-441.1 441.098-441.1 243.607 0 441.097 197.49 441.097 441.1 0 243.614-197.49 441.095-441.097 441.095zM795.096 654.49c-15.198-0.461-25.778-0.49-37.988-8.916-4.92-3.401-8.26-7.906-14.504-9.657-5.598-1.576-11.641-0.194-17.195-2.078-20.042-6.802-16.867-49.728-43.273-43.244-12.405 3.043-21.147 17.702-27.39 27.274-5.5 8.422-15.515 15.387-8.75 25.927-3.086-0.792-6.376 0.11-9.414-0.467 4.23 9.289 18.418 8.477 20.778 13.225 5.879 11.898-16.184 13.141-22.432 14.79 7.53 8.027 11.342-2.7 18.775-0.878 7.144 1.758-3.77 11.166-8.054 12.223-1.538 0.38-26.69-6.951-12.132 6.077a289598.807 289598.807 0 0 0-53.911 34.374c-3.026-12.746 23.92-19.99 32.72-24.481-1.367-5.264-9.554-12.928-15.822-10.685-5.905 2.118-3.508 11.902-12.424 10.92-6.366-14.802 13.46-10.475 15.302-19.546 2.093-10.334-7.495-5.954-11.182-5.776-0.879 0.046-7.752 7.16-8.122 1.774-0.446-6.395 10.96-3.901 11.765-10.36-13.285-0.537-20.071 4.26-30.887 11.445-12.623 8.378-19.101 7.623-34.568 7.623 4.626 1.9 10.998 3.308 14.954 6.368 2.16 1.672 10.638 9.912 11.197 11.751 2.396 7.938-0.13 7.336-7.725 12.54-6.751 4.618-14.94 12.91-23.12 14.543-29.64 5.917-9.141-26.76-31.64-31.266 0.385-0.02 0.801-0.038 1.132-0.038h-1.289c0.058 0.004 0.104 0.026 0.157 0.038-5.205 0.187-14.96 1.452-18.314-1.297-2.367-1.934-2.566-9.699-5.213-12.51-4.71-5.02-11.73-6.023-17.35-9.643-5.486-3.537-17.58-12.612-20.802-18.767-11.873-22.685 26.753-29.726 41.397-36.356 6.616-2.998 25.953-7.1 29.554-12.106 4.83-6.723-4.163-13.026 5.923-17.752 3.221-1.505 9.864-1.813 12.639 1.305 4.508 5.081-1.833 6.228-2.913 12.097-2.091 11.298 1.355 6.808 7.038 11.007 11.58 8.55 8.972 9.073 4.805 22.697-1.934 6.341-9.233 24.043-2.813 28.725 8.372 6.107 26.226-3.31 32.645-4.098 7.47-0.914 11.712-11.266 15.783-15.5 2.705-2.811 7.541-8.776 12.265-8.13 7.499 1.026 4.361 7.582 8.71 10.606 11.667 8.091 14.74-2.901 19.39-13.895 4.375-10.326 8.514-14.159 16.3-20.782 3.616-3.083 19.462-14.087 17.967-20.87-1.013-4.57-19.115-11.499-23.956-13.033-17.694-5.604-50.887 9.175-54.451-18.884 6.865 2.556 26.391 18.508 32.248 10.947 2.67-3.43-2.118-8.426-0.99-11.833 3.34-10.213 11.217-6.655 19.478-5.004-0.563-0.351-1.14-0.658-1.75-0.931 11.287 5.8 10.113 4.592 15.292 14 1.691 3.073 4.207 10.511 6.589 12.711 8.204 7.547 9.468 2.35 14.55-3.472 1.331-1.534 13.897-19.627 9.424-18.725-14.617 2.931-28.65 2.538-40.772-5.454-6.984-4.613-13.59-10.837-21.93-13.9-2-0.731-16.805-2.134-15.055 0.39 2.555 3.682 11.348 6.118 14.818 10.092-9.617 3.96-17.637-4.784-25.193-9.897-8.018-3.793-9.882-10.863-16.71-17.061-2.98-2.702-8.615-3.162-11.542-6.718-2.839-3.451-3.192-8.879-5.88-12.154-1.888-2.294-6.725-0.909-8.695-4.366-2.566-4.516 2.348-8.71 1.271-11.963-1.973-5.913-13.219-10.93-17.543-15.186a74.812 74.812 0 0 1 1.716 1.706c-4.334-4.548-9.818-7.892-13.202-13.154 1.553-7.428 6.452-25.147 5.086-29.223-4.508-13.411-13.263 7.294-16.814 12.643-12.2 18.382-36.583 6.082-53.24 4.556-21.304-1.949-42.17-29.596-29.03-52.038 6.309-10.762 16.92-14.929 29.092-12.438 10.832 2.218 14.085 17.373 24.286 17.65 18.746 0.5 0.412-18.37-1.21-25.295-1.5-6.415 2.338-7.008 8.941-8.598 4.876-1.165 11.781 2.087 16.008-0.697 2.663-1.758 2.535-11.383 6.197-8.347-7.21-5.977-5.525-20.148 1.867-25.27 8.196-5.685 17.846-0.42 26.428-2.603 16.2-4.134 8.467 1.235 22.694 9.824 9.603 5.787 11.178-1.09 17.74-1.117 4.467-0.019 7.304 6.421 14.772 4.547 6.088-1.533 8.494-6.233 15.762-7.314 2.98-0.44 6.057 1.121 8.898 0.808 13.444-1.494 23.736-10.083 34.33-17.85 8.73-6.392 14.512-5.097 24.71-8.012 7.45-2.123 21.196-12.905 20.492-22.371-0.125-1.693-6.638-10.206-7.751-14.04 1.906-1.32 15.165 1.643 19.045 1.922-1.275-1.484-10.303-7.828-10.303-4.46 0-1.726 6.387-5.272 7.944-6.373 4.71 15.29 12.445 5.451 21.754 1.664 7.915-3.224 17.658-3.397 26.1-5.408 7.166-1.706 22.97-6.545 28.28-12.4 6.392-7.05 1.974-18.502-2.756-25.516-6.187-9.192-15.517-12.73-19.376-23.545-3.05-8.573-0.76-17.235-2.503-26.738-2.356-12.865-4.245-8.355-12.53-16.205-6.971-6.611-0.117-5.462-9.608-9.676-9.533-4.236-17.928-2.976-24.529-13.436 0.264 0.658 0.48 1.317 0.664 2.005-2.786-3.897-4.178-11.88-5.498-14.498-3.328-6.682-7.918-10.897-13.181-16.462-2.017-2.131-20.561-27.465-21.632-25.43-1.377 2.648-15.998-2.658-16.695 1.118 0.581-3.174-0.139-2.11 3.492-3.939-3.362-20.82-12.168-23.925-32.613-24.135 1.758-10.007-7.409-8.01-11.67-13.39-2.49-3.142-3.679-11.976-5.405-16.044-1.078-2.555-9.06-12.794-9.06-14.822-0.009-1.87 2.684-4.607 5.207-7.233-14.414-2.85-29.11-4.838-44.038-6.05 2.795 3.52 3.467 6.613-5.433 7.037 2.382 6.472 7.974 10.163 10.344 16.431 1.124 2.958 0.194 4.127 1.144 7.058 3.257 10.115 1.845 6.3 0.009 14.156-4.301 18.416 1.53 23.453 6.55 40.314 5.153 17.327 4.674 39.789 7.976 58.453 1.566 8.933 4.132 27.517 1.03 35.96-3.495 9.508-18.87 16.996-25.91 23.39-9.969 9.083-15.268 18.897-22.67 30.123-3.757 5.7-8.04 11.296-10.972 17.495-6.27 13.255 0.005 5.366 1.06 13.19 1.01 7.559-0.9 14.315 2.1 22.249 3.32 8.772 11.608 14.238 14.33 23.083 2.45 7.874 0.586 17.77-7.502 20.397-4.508 1.472-9.482-1.919-14.01-1.174-6.317 1.022-13.466 5.738-18.423 9.507-6.919 5.272-9.512 13.839-16.88 18.837-6.169 4.164-10.556 1.672-17.154 3.62-6.882 2.028-11.13 10.52-16.681 13.178-8.33 3.984-13.025-1.737-21.819-0.58-7.478 0.979-18.884 9.267-25.872 12.399-14.209 6.36-22.86 13.38-28.543 27.8-4.866 12.366-11.96 18.134-20.312 28.434-8.463 10.435-11.114 19.328-24.158 22.109-1.532 0.332 3.192-10.955 3.679-11.86 4.661-8.632 11.661-16.515 17.291-24.552 8.284-11.837 4.754-14.058-3.673-2.612-9.636 13.095-20.818 26.115-29.177 39.983-3.16 5.241-2.553 8.63-7.765 13.606-5.036 4.808-11.626 7.15-16.697 11.723-18.246 16.408-21.563 38.313-19.483 61.705 0.676 7.625 3.43 13.723 2.216 21.052-1.002 6.086-4.595 11.118-9.085 15.601-1.446 2.304-5.077 7.978-5.287 8.339-4.142 6.88-7.364 13.647-13.944 19.292-3.776 3.252-13.544 10.853-22.741 17.22 41.322 51.538 95.392 92.38 157.421 117.739 0.494-3.118 1.833-6.231 3.84-9.211 5.1-7.563 9.96-6.965 19.916-9.058-1.067-11.555-14.573-11.647-23.715-10.394-10.913 1.498-22.394 5.123-31.847-4.441 5.221-3.14 19.552-15.366 17.647-2.59 10.454 0.522 20.56 0.835 30.787-0.416 4.098-0.502 17.828-5.11 21.549-3.01 1.562 0.884 3.226 8.588 4.878 10.958-2.915-0.017-6.04 1.455-8.944 1.176 6.772 8.672 13.52 1.87 22.139-2.12-9.49-5.766-3.862-19.584 5.415-8.356 7.621 9.233-1.864 15.927-11.54 21.307 9.757 12.204 15.774 13.305 24.954-0.469 1.513 8.495 8.369 5.095 15.535 4.467v2.125c-3.154-0.076-6.522 1.738-9.644 1.41 7.3 11.648 2.64 14.308 13.076 18.11 8.311 3.026 32.02 0.21 34.941 8.022-16.593-3.225-36.638-3.998-51.608-11.542-6.455-3.253-14.144-13.522-20.59-6.848-6.607 6.848 4.726 17.859 10.524 21.215h-1.388c26.254 5.584 53.443 8.582 81.339 8.582 18.024 0 35.738-1.334 53.126-3.71-6.017-3.16-1.568-5.292-5.95-8.522-8.37-6.155-23.226-11.292-33.185-15.182 12.66 0.034 43.306-11.871 49.204 5.887-4.088 0.628-8.165 1.257-12.248 1.885 7.629 5.059 16.138 9.153 25.072 12.154 80.62-15.971 152.332-56.864 206.883-114.246-0.394 0.009-0.781 0.019-1.158 0.009z m71.39-154.868c0.725 1.55 2.421 2.061 3.121 3.34 1.474 2.69 1.145 4.513 2.96 6.821 1.942 2.495 4.563 3.106 6.73 5.055a7.898 7.898 0 0 1 1.763 2.251 386.672 386.672 0 0 0 15.464-56.207c-0.114-0.138-0.178-0.347-0.32-0.463-0.948-0.75-7.13-1.668-8.4-1.712-4.476-0.172-7.802 2.799-11.016 5.594-3.27 2.84-7.12 6.64-9.444 10.318-2.482 3.928-0.95 7.964-0.772 12.45 0.148 3.773-1.688 9.153-0.087 12.553z m5.047-202.244c-7.577 6.582-16.516 15.406-21.903 23.932-5.754 9.09-2.208 18.446-1.787 28.857 0.35 8.756-3.928 21.216-0.207 29.1 1.709 3.6 5.624 4.79 7.236 7.74 3.426 6.245 2.667 10.466 6.871 15.835 4.51 5.766 10.574 7.185 15.599 11.707 5.263 4.74 5.117 8.48 8.449 14.554 2.438 4.443 8.168 11.85 13.593 15.724a391.752 391.752 0 0 0 4.477-59.123c0-34.76-4.625-68.45-13.19-100.55-7.303 1.883-13.31 7.147-19.138 12.224z"  horiz-adv-x="1024" />

    
    <glyph glyph-name="dianhua1" unicode="&#59045;" d="M571.904 830.976c-2.56 1.024-5.12 1.024-7.68 1.024-23.04 1.024-42.496-14.336-47.104-36.864-2.56-11.776 0-24.576 6.656-34.816s16.896-16.896 29.184-19.456c97.28-20.48 180.736-76.8 235.52-160.256s74.24-182.784 53.76-280.064c-2.56-11.776 0-24.576 6.656-34.816s16.896-16.896 29.184-19.456c2.56-1.024 5.12-1.024 7.68-1.024 9.216 0 18.944 2.56 27.136 7.68 10.24 6.656 16.896 16.896 19.456 29.184C984.576 532.48 822.784 779.264 571.904 830.976z m120.32-648.192c2.56-1.536 64-40.96 111.104-88.576 17.92-17.92 47.104-48.64 46.08-83.456-1.024-24.064-14.336-48.64-41.984-74.24-6.656-6.656-67.584-64-165.376-64-26.624 0-54.784 4.096-81.92 12.8-29.184 8.704-57.856 22.016-87.04 39.936-114.176 67.584-202.24 154.624-285.696 281.6C43.52 424.96 39.936 611.84 39.936 647.68c1.024 162.816 136.704 226.816 152.064 233.984 21.504 9.216 39.936 14.336 57.344 14.336 8.704 0 16.384-1.024 23.04-3.584 15.36-4.096 35.84-16.384 49.664-47.104 18.944-40.96 36.864-99.84 49.664-161.28 12.8-64-23.04-81.92-57.344-98.816l-1.536-1.024s-61.44-25.6-71.68-29.696c-10.24-4.096-16.384-16.384-12.8-27.136 24.576-75.264 62.464-152.576 109.056-224.256 46.08-70.656 100.864-136.704 157.696-189.44 4.096-3.584 9.216-6.144 15.36-6.144h1.536c6.144 1.024 11.776 3.584 15.36 8.704 9.216 11.776 24.064 29.184 38.4 43.52 29.184 27.136 54.784 39.936 79.36 39.936 6.656 0 13.824-1.024 19.456-2.56 6.144-1.536 16.384-6.656 27.648-14.336z m-186.88 413.696c-24.576 5.12-40.96 29.696-35.84 54.784 4.096 22.016 24.576 37.376 47.104 36.864 2.56 0 5.12 0 7.68-1.024 87.04-17.92 161.28-68.096 210.944-142.336 48.64-74.24 65.536-162.816 47.616-249.856-2.56-11.776-9.216-22.016-19.456-29.184-8.704-5.12-16.896-7.68-27.136-7.68-2.56 0-5.12 0-7.68 1.024-24.576 5.12-40.96 29.696-35.84 54.784 12.8 62.464 1.024 126.464-34.816 180.224-35.84 52.736-90.624 89.6-152.576 102.4z"  horiz-adv-x="1024" />

    
    <glyph glyph-name="zhanghu" unicode="&#58899;" d="M235.456 539.776a286.144 276.544 90 1 1 553.088 0 286.144 276.544 90 1 1-553.088 0ZM692.736 245.248C624.96 257.664 582.208 165.056 512 165.056s-95.872 90.56-180.736 80.192c-128.448-47.04-216.512-148.864-216.512-303.168h794.496c0 154.304-88 256.128-216.512 303.168z"  horiz-adv-x="1024" />

    
    <glyph glyph-name="dianhua1-copy-copy1" unicode="&#59617;" d="M65.024 443.904c-1.02399999-2.56-1.02399999-5.12-1.024-7.68-1.024-23.03999999 14.336-42.496 36.864-47.104 11.77600001-2.56 24.57599999 0 34.816 6.656s16.896 16.896 19.456 29.184c20.47999999 97.28 76.8 180.736 160.256 235.52s182.784 74.24 280.064 53.76c11.77600001-2.56 24.57599999 0 34.816 6.656s16.896 16.896 19.456 29.184c1.02399999 2.56 1.02399999 5.12 1.024 7.68 0 9.21600001-2.56 18.944-7.68000001 27.136-6.656 10.23999999-16.896 16.896-29.18399999 19.456C363.52 856.57600001 116.73600001 694.784 65.024 443.904z m648.192 120.32c1.53600001 2.56 40.96 64 88.57599999 111.104 17.92 17.92 48.64 47.104 83.45600001 46.08 24.064-1.024 48.64-14.336 74.23999999-41.984 6.656-6.656 64.00000001-67.584 64.00000002-165.376 0-26.624-4.09600001-54.784-12.80000001-81.92-8.704-29.184-22.016-57.856-39.936-87.04-67.584-114.176-154.624-202.24-281.6-285.696C471.04-84.48000000000002 284.16-88.06399999999996 248.32-88.06399999999996c-162.816 1.024-226.816 136.704-233.984 152.064-9.216 21.504-14.336 39.936-14.336 57.344 0 8.704 1.024 16.384 3.58400001 23.04 4.096 15.35999999 16.384 35.84 47.10399999 49.664 40.96 18.944 99.84 36.864 161.28 49.664 64.00000001 12.8 81.92-23.03999999 98.816-57.344l1.02400001-1.536s25.6-61.44 29.69599999-71.68000001c4.09600001-10.24 16.384-16.384 27.136-12.79999999 75.26399999 24.576 152.57600001 62.464 224.256 109.056 70.656 46.08 136.704 100.864 189.43999999 157.696 3.584 4.096 6.144 9.216 6.14400001 15.36l0 1.536c-1.024 6.144-3.584 11.776-8.704 15.36-11.776 9.216-29.184 24.064-43.52 38.4-27.136 29.184-39.936 54.784-39.936 79.36 0 6.65600001 1.024 13.824 2.56 19.456 1.536 6.144 6.656 16.384 14.336 27.648z m-413.696-186.88c-5.12-24.57599999-29.696-40.96-54.784-35.84-22.016 4.096-37.376 24.576-36.864 47.104 0 2.56 0 5.12 1.024 7.68 17.91999999 87.04 68.096 161.28 142.336 210.944 74.24 48.64 162.816 65.536 249.856 47.616 11.77600001-2.56 22.016-9.216 29.184-19.456 5.12-8.704 7.67999999-16.896 7.68-27.136 0-2.56 0-5.12-1.024-7.68-5.12-24.57599999-29.696-40.96-54.784-35.84000001-62.464 12.8-126.464 1.024-180.224-34.81599999-52.736-35.84-89.6-90.624-102.4-152.576z"  horiz-adv-x="1024" />

    
    <glyph glyph-name="sale" unicode="&#58898;" d="M913.219191 350.694262l73.572907-49.851364-68.876764-54.667921 57.196613-64.78269-29.983067-13.486359c-35.762935 29.862653-81.64064 47.924741-131.853246 47.924741-113.550329 0-205.66698-92.116651-205.66698-205.66698 0-49.249294 17.339605-94.524929 46.35936-129.926623L639.39793-172.022578l-69.599247 72.12794L525.004704-193.215428l-74.415804 86.818438L390.74318-169.373471l-41.904045 96.933208-71.887112-40.940734-3.973659 87.902164L177.008467-44.504233l3.612418 104.880527-77.426152 4.936971 38.652869 74.054563-84.048918 37.930386 53.463782 74.054563-73.332079 50.212606 69.117592 54.306679-56.835372 65.023518 85.614299 37.930386-49.369708 80.677328 107.047977 1.685795-31.30762 98.016933 106.20508-14.810913-1.685795 98.859831 93.079962-50.212606 27.93603 99.582314 69.117592-72.489182 45.275635 93.079962 69.478833-86.457197 59.604892 63.21731 42.506115-96.69238 71.646284 41.301976 4.455315-87.902164 95.849483 19.507056-3.010348-104.880527 77.426152-4.575729-38.291627-74.29539 84.169332-37.44873L913.219191 350.694262 913.219191 350.694262zM363.288805 218.720602c-7.706491 22.999059-32.752587 32.632173-75.138288 28.899341-21.915334-1.685795-33.715898 0.120414-35.642521 5.779868-2.047037 6.14111 2.528692 11.078081 13.727187 14.931326 5.53904 1.926623 10.11477 2.167451 13.727187 0.842897 5.057385-0.120414 8.669802-2.649106 10.957667-7.586077l47.924741 16.135466c-15.774224 30.223895-43.349012 39.014111-82.724365 26.370649-42.746943-15.65381-59.364064-39.616181-49.73095-71.887112 8.067733-24.082785 33.595484-34.197554 76.583255-30.344309 21.072437 2.047037 32.752587 0.120414 34.799624-6.020696 2.408278-7.345249-3.612418-13.365945-18.182502-18.302916-5.659454-1.926623-10.716839-2.408278-15.412982-1.444967-4.816557 1.444967-9.031044 4.696143-12.643462 9.753528L222.765757 169.591722c15.774224-30.223895 44.432738-39.254939 85.855127-27.213547C355.4619 158.754468 373.644403 184.161806 363.288805 218.720602L363.288805 218.720602zM443.966134 362.735654l-51.296331-17.219191-3.492004-173.275635 49.610536 16.617121-0.963311 22.156162 50.453434 16.978363L500.921919 209.930386l50.453434 16.978363L443.966134 362.735654 443.966134 362.735654zM608.933208 286.393227l-39.857008 118.4873-51.296331-17.219191 52.018815-154.611477L690.814675 273.749765l-12.161806 36.124177L608.933208 286.393227 608.933208 286.393227zM829.892756 360.688617l-78.148636-26.250235-8.188147 24.323612 63.819379 21.433678-12.161806 36.124177-63.819379-21.433678-7.345249 21.79492 75.619944 25.407338-12.161806 36.124177-126.916275-42.626529 52.018815-154.611477 129.324553 43.469426L829.892756 360.688617 829.892756 360.688617zM433.369708 307.826905l35.401693-49.73095-32.752587-11.078081L433.369708 307.826905 433.369708 307.826905zM813.155221 169.110066c87.78175 0 158.946378-71.164628 158.946378-158.946378 0-87.78175-71.164628-158.946378-158.946378-158.946378-87.78175 0-158.946378 71.164628-158.946378 158.946378C654.208843 97.945437 725.373471 169.110066 813.155221 169.110066L813.155221 169.110066zM758.005644-62.927563l55.029163 24.56444 55.029163-24.56444-7.586077 57.196613 41.542803 42.144873-59.604892 10.837253-29.380997 50.573848-29.380997-50.573848-59.604892-10.837253 41.542803-42.144873L758.005644-62.927563 758.005644-62.927563zM758.005644-62.927563"  horiz-adv-x="1024" />

    
    <glyph glyph-name="cloud" unicode="&#59612;" d="M829.25568 475.42272c-13.98784 146.0224-135.55712 260.56704-285.24544 260.56704-115.8144 0-214.9376-68.73088-260.66944-167.36256-13.76256 4.34176-28.09856 7.35232-43.29472 7.35232-79.52384 0-143.99488-64.512-143.99488-143.99488 0-15.81056 3.1744-30.76096 7.86432-44.93312-61.8496-36.06528-103.87456-102.23616-103.87456-179.01568 0-114.87232 93.12256-207.99488 207.99488-207.99488l0-0.06144 575.95904 0.06144c132.56704 0 240.00512 107.4176 240.00512 240.00512 0 116.98176-83.8656 214.17984-194.74432 235.35616zM783.99488 64.06144l0-0.06144-575.95904 0c-79.40096 0.06144-143.99488 64.63488-143.99488 144.05632 0 51.2 26.97216 97.44384 72.13056 123.74016 43.86816 25.1904 46.87872 30.16704 28.48768 75.42784-3.11296 9.3184-4.608 17.408-4.608 24.73984 0 44.1344 35.88096 79.99488 79.99488 79.99488 0 0 20.992 1.49504 43.29472-7.35232 36.70016-14.62272 40.71424-0.63488 58.04032 37.08928 36.70016 79.13472 116.224 130.29376 202.62912 130.29376 115.2 0 210.432-87.1424 221.57312-202.69056 3.93216-45.83424 3.93216-45.83424 51.67104-56.7296 82.75968-15.81056 142.7456-88.39168 142.7456-172.50304 0-97.05472-78.9504-176.00512-176.00512-176.00512z"  horiz-adv-x="1024" />

    
    <glyph glyph-name="liwu" unicode="&#59013;" d="M924.649248 73.490014 924.649248 379.818771c21.098527 12.180414 35.259038 34.95614 35.259038 61.081147L959.908286 518.980227c0 38.885636-31.564903 70.502727-70.50989 70.502727l-92.732008 0c2.031263 1.215688 4.050246 2.440585 6.051833 3.677762 42.710754 26.396183 71.222111 52.741201 79.844489 81.858356 8.915044 30.106692-5.238304 57.455573-38.946011 76.966952-38.893822 22.51376-86.874603 25.088398-141.296073 12.032034-38.808888-9.31004-79.630618-26.253944-121.081683-48.621371-22.441105-12.109806-43.670615-25.061792-63.065338-38.024012-4.710278-3.14769-9.074679-6.139837-13.083993-8.951883-6.860245 6.130627-13.867846 12.18553-21.047362 18.104333-60.102866 49.556673-120.3009 82.089623-178.51065 89.178065-47.313585 5.762237-91.119277-5.932106-128.96421-37.111223l-2.709715-2.62478c-1.222851-1.39272-2.399653-2.796696-3.529383-4.211928-38.202067-47.88766-20.659529-97.891518 27.161616-142.272307l-60.288085 0c-39.051411 0-70.50989-31.546483-70.50989-70.502727l0-78.08031c0-26.058492 14.186094-48.836265 35.259038-61.038168l0-306.371736c0-51.970652 42.047652-93.820805 94.055143-93.820805l634.591059 0C882.690624-20.329768 924.649248 21.60839 924.649248 73.490014zM603.601254 674.133913c38.149878 20.586874 75.376735 36.037774 109.707634 44.274366 43.72792 10.489912 79.850629 8.55177 106.71651-6.999414 16.350386-9.464559 19.618826-15.780405 17.451464-23.098068-4.270257-14.421454-26.194592-34.679847-59.513442-55.271838-14.854313-9.18008-30.887474-17.828041-46.931892-25.63996-9.611915-4.679579-17.024745-8.011464-21.10876-9.732665-4.241604-1.787716-7.677866-4.674463-10.128685-8.185426L578.456574 589.480908c-0.849344 3.066849-2.323928 6.012947-4.477988 8.629541-1.252527 1.521656-3.5345 4.210905-6.777357 7.900947-5.322216 6.055926-11.461029 12.780071-18.346857 20.006659-2.964518 3.110851-5.992481 6.218632-9.052167 9.324366 1.469468 0.998747 2.978844 2.015913 4.5312 3.053546C562.564629 650.581498 582.550823 662.775214 603.601254 674.133913zM273.063119 591.664643c-2.225691 1.238201-6.499018 3.817955-12.116969 7.561209-9.450233 6.296403-18.900465 13.420661-27.631314 21.152762-35.000142 30.993898-45.433772 58.057277-26.204825 82.161255 0.300852 0.3776 0.636496 0.75827 0.953721 1.136893 27.187199 21.762653 57.552787 29.628808 91.77317 25.461905 47.482431-5.782703 100.449783-34.407648 154.260339-78.775134 21.828145-17.997909 42.267663-37.33635 60.690244-56.668651 1.362021-1.428535 2.683109-2.830465 3.979638-4.212952L276.309046 589.481931C275.30416 590.284203 274.223548 591.017914 273.063119 591.664643zM113.702622 518.980227c0 13.100366 10.464329 23.593348 23.499204 23.593348l752.196571 0c12.941753 0 23.499204-10.574846 23.499204-23.593348l0-78.08031c0-6.303566-2.427282-11.999288-6.393617-16.217357-1.722224 0.401136-3.514033 0.620124-5.359055 0.620124L125.455293 425.302685c-1.825578 0-3.599991-0.214894-5.306866-0.607844-3.988848 4.229325-6.445806 9.931187-6.445806 16.205077L113.702622 518.980227zM196.004069 26.578588c-26.069749 0-47.043433 20.874423-47.043433 46.911426L148.960637 370.397191l728.676901 0 0-296.907177c0-25.993001-20.928658-46.911426-47.043433-46.911426L196.004069 26.578588z"  horiz-adv-x="1024" />

    
    <glyph glyph-name="tuandui" unicode="&#58897;" d="M755.301774 173.865967L534.133329 284.395412l66.820804 97.226102a28.05753 28.05753 0 0 1 4.916697 15.844626V552.661558c0 101.186491-81.080455 180.464908-184.616762 180.464908-103.536308 0-184.616763-79.277393-184.616763-180.464908v-155.195418a27.852752 27.852752 0 0 1 5.176764-16.199914l68.732398-96.651703L79.74838 174.085078a28.013502 28.013502 0 0 1-15.885581-25.241844v-98.510055c0-15.462716 12.525189-27.973571 27.973571-27.973571h650.953526c15.462716 0 27.973571 12.511879 27.97357 27.973571v98.510055c0.001024 10.599261-5.981538 20.296479-15.461692 25.022733z m-40.485449-95.559217H119.810965v52.915417l244.867295 117.277873a27.920329 27.920329 0 0 1 14.997872 18.248708 27.808725 27.808725 0 0 1-4.289055 23.193051l-82.801607 116.45774v146.262019c0 69.825907 56.521542 124.516742 128.668598 124.516742 72.148079 0 128.669621-54.690835 128.669621-124.516742v-146.507751l-80.124147-116.567297a27.966404 27.966404 0 0 1-4.043323-22.837762c2.048795-7.83989 7.348425-14.424496 14.588318-18.029597l234.472811-117.168317v-53.244084zM942.432176 242.871742L721.291375 353.402211l66.820804 97.226103a28.060601 28.060601 0 0 1 4.917722 15.844625V621.667333c0 101.186491-81.080455 180.464908-184.616763 180.464908-20.161326 0-39.912074-3.059369-58.706513-9.097221l17.100933-53.270706c13.276721 4.261411 27.264018 6.419761 41.60558 6.419761 72.147056 0 128.668597-54.690835 128.668597-124.516742v-146.507751l-80.124146-116.567296a27.966404 27.966404 0 0 1-4.043323-22.837763c2.048795-7.840914 7.348425-14.424496 14.588318-18.029596l234.445166-117.168317v-53.243061h-69.743997v-55.948166h97.717568c15.461692 0 27.973571 12.511879 27.973571 27.973571v98.510055c0 10.599261-5.983586 20.296479-15.462716 25.022733z"  horiz-adv-x="1024" />

    
    <glyph glyph-name="freesale" unicode="&#58895;" d="M468.93056 382.93504l8.0896-27.48416h-28.63104l7.70048 27.48416c2.10944 7.49568 4.01408 17.3056 5.95968 24.9856h0.38912c1.90464-7.68 4.1984-17.28512 6.49216-24.9856z m356.22912-5.77536a91.60704 91.60704 0 0 0-26.99264-65.16736l-38.99392-38.99392v-55.13216c0-50.81088-41.34912-92.16-92.13952-92.16h-55.15264l-38.99392-38.99392c-17.36704-17.38752-40.50944-26.99264-65.14688-26.99264s-47.77984 9.60512-65.18784 27.0336l-38.95296 38.93248h-55.15264a91.5456 91.5456 0 0 0-65.16736 26.99264 91.56608 91.56608 0 0 0-26.97216 65.16736v55.17312l-38.99392 38.97344c-17.408 17.408-26.99264 40.5504-26.99264 65.16736s9.60512 47.77984 26.99264 65.16736l38.99392 38.97344v55.11168c0 50.81088 41.34912 92.16 92.13952 92.16h55.13216l39.0144 39.0144c17.36704 17.38752 40.50944 26.99264 65.14688 26.99264s47.77984-9.60512 65.18784-27.0336l38.95296-38.93248h55.15264c24.59648 0 47.73888-9.58464 65.14688-26.97216a91.58656 91.58656 0 0 0 26.99264-65.18784v-55.13216l38.99392-38.99392a91.648 91.648 0 0 0 26.99264-65.16736z m-430.91968-38.6048c0 18.24768-10.77248 30.16704-33.64864 38.62528-16.71168 6.3488-24.02304 9.99424-24.02304 18.24768 0 6.73792 6.144 12.4928 18.82112 12.4928 12.6976 0 21.9136-3.64544 27.09504-6.144l6.53312 23.63392c-7.68 3.46112-18.432 6.53312-33.05472 6.53312-30.55616 0-49.00864-16.91648-49.00864-39.0144 0-18.82112 14.0288-30.74048 35.55328-38.23616 15.5648-5.57056 21.7088-10.19904 21.7088-18.26816 0-8.45824-7.10656-14.0288-20.56192-14.0288a74.8544 74.8544 0 0 0-32.48128 8.06912l-5.95968-24.20736c7.31136-4.03456 21.9136-7.8848 36.72064-7.8848 35.57376 0 52.30592 18.45248 52.30592 40.18176z m128.512-38.25664l-40.16128 129.536h-38.44096l-39.60832-129.536h30.37184l9.216 33.25952h37.10976l9.97376-33.25952h31.5392z m98.14016 24.59648h-51.52768v104.93952h-29.40928v-129.536h80.91648v24.59648z m99.88096-0.57344h-53.248v30.74048h47.67744v23.83872h-47.67744v26.91072h50.56512v24.02304h-79.95392v-129.536h82.6368v24.02304z"  horiz-adv-x="1024" />

    
    <glyph glyph-name="jiantou24" unicode="&#59180;" d="M810.341 404.266l-211.407 212.056c-4.787 4.8-11.165 7.434-17.95 7.434-6.837 0-13.265-2.673-18.102-7.511-9.203-9.218-10.107-23.64-2.165-33.759l171.945-172.53-502.568 0c-14.028 0-25.447-11.469-25.447-25.574s11.419-25.562 25.447-25.562l502.555 0-176.107-176.603c-5.296-10.54-3.653-22.71 4.253-30.641 4.735-4.735 11.139-7.332 18.038-7.333 7.587 0 14.83 3.055 20.381 8.605l14.106 14.093 38.712 38.84 7.306 7.178 150.979 151.525c5.002 5.028 7.537 11.916 7.166 19.4l-0.026 0.496 0.026 0.509c0.369 7.498-2.165 14.386-7.142 19.374l0 0zM810.341 404.266z"  horiz-adv-x="1028" />

    
    <glyph glyph-name="gouwuche" unicode="&#59119;" d="M892.689349 586.223724c-5.884011 7.483438-14.134929 12.296047-23.76117 12.296047L249.434979 598.519772l88.696088-307.340807c5.500271-28.190039 29.565363-48.816822 57.06774-48.816822l317.653687 0c24.752754 0 50.879807 16.501836 59.130725 40.565904l123.761722 275.712459c3.437286 8.93858 5.78475 12.817933 0.668219 21.836331L892.689349 586.223724zM954.874643 570.329732 833.175907 267.114896c-14.43885-41.941228-55.004755-89.382727-97.633644-89.382727L385.572566 177.73217c-48.816822 0-98.321306 61.880349-107.947548 111.384833l-92.133374 354.094644L162.801876 751.159194l-75.631538 0c-12.375865 0-22.002107 10.313903-22.002107 22.689768s9.626241 22.689768 22.002107 22.689768l92.821035 0 2.062985-0.687662 4.124947-0.687662 4.124947-1.375324 3.438309-2.750647 2.750647-2.750647 2.062985-3.438309 2.062985-4.124947 0.687662-2.062985 22.689768-121.698736 662.810774 0c23.37743 0 45.379537 1.375324 59.130725-18.563798C958.99959 618.458893 962.437899 593.019501 954.874643 570.329732L954.874643 570.329732zM271.437086 40.218236c0 37.816281 30.940686 68.755943 68.755943 68.755943s68.755943-30.940686 68.755943-68.755943c0-37.816281-30.940686-68.755943-68.755943-68.755943S271.437086 2.402979 271.437086 40.218236zM683.974793 40.218236c0 37.816281 30.940686 68.755943 68.755943 68.755943 37.816281 0 68.755943-30.940686 68.755943-68.755943 0-37.816281-30.940686-68.755943-68.755943-68.755943C714.914456-28.537707 683.974793 2.402979 683.974793 40.218236z"  horiz-adv-x="1024" />

    
    <glyph glyph-name="shang" unicode="&#58940;" d="M904 204c0-8.189-3.124-16.379-9.372-22.628-12.497-12.496-32.759-12.496-45.256 0L512 518.745 174.628 181.372c-12.497-12.496-32.758-12.496-45.255 0-12.497 12.498-12.497 32.758 0 45.256l360 360c12.497 12.496 32.758 12.496 45.255 0l360-360C900.876 220.379 904 212.189 904 204z"  horiz-adv-x="1024" />

    
    <glyph glyph-name="xia" unicode="&#58941;" d="M904 564c0 8.189-3.124 16.379-9.372 22.628-12.497 12.496-32.759 12.496-45.256 0L512 249.255 174.628 586.628c-12.497 12.496-32.758 12.496-45.255 0-12.497-12.498-12.497-32.758 0-45.256l360-360c12.497-12.496 32.758-12.496 45.255 0l360 360C900.876 547.621 904 555.811 904 564z"  horiz-adv-x="1024" />

    
    <glyph glyph-name="diqiu" unicode="&#58946;" d="M512 832C264.6 832 64 631.4 64 384s200.6-448 448-448 448 200.6 448 448S759.4 832 512 832z m0-224c-29.5 0-58.3 2.6-86.2 7.5C452 720.7 491.4 776 512 776c20.6 0 60-55.3 86.2-160.5-27.9-4.8-56.7-7.5-86.2-7.5z m140.7 20.4c-13.6 55.7-31.8 102.6-53.1 137.4 63.6-14.6 121.3-44.7 169-86.1-35.3-21.8-74.3-39.1-115.9-51.3z m-281.4 0c-41.6 12.2-80.5 29.6-115.8 51.3 47.7 41.4 105.3 71.4 168.9 86-21.3-34.7-39.4-81.6-53.1-137.3zM679.5 412c-1.3 57.5-6.7 111.9-15.4 161.4 52.5 15 101.3 37.3 144.8 65.8 53.4-62 87.5-140.7 93.7-227.2H679.5z m-558.1 0c6.2 86.4 40.2 165.1 93.5 227.1 43.5-28.5 92.4-50.6 145-65.6-8.7-49.6-14.1-104-15.4-161.5H121.4z m279.1 0c1.3 55.7 6.4 105.4 13.9 148.7 31.6-5.6 64.1-8.7 97.6-8.7 33.4 0 66 3 97.6 8.6 7.5-43.3 12.5-93 13.9-148.6h-223z m408.4-283.2c-43.5 28.5-92.3 50.8-144.8 65.8 8.7 49.6 14.1 104 15.4 161.4h223.1c-6.2-86.5-40.3-165.2-93.7-227.2z m-394.5 78.5c-7.5 43.3-12.5 93-13.9 148.7h222.9c-1.3-55.6-6.3-105.3-13.9-148.6C578 213 545.4 216 512 216c-33.4 0-66-3.1-97.6-8.7zM215 128.9c-53.3 62-87.4 140.7-93.5 227.1h223.1c1.3-57.5 6.7-111.9 15.4-161.5-52.6-15-101.5-37.1-145-65.6zM512-8c-20.6 0-60 55.3-86.2 160.5 27.9 4.8 56.7 7.5 86.2 7.5s58.3-2.7 86.2-7.5C572 47.3 532.6-8 512-8z m87.6 10.2c21.3 34.8 39.5 81.7 53.1 137.4 41.7-12.2 80.6-29.5 115.9-51.2-47.7-41.5-105.4-71.6-169-86.2z m-175.2 0c-63.6 14.6-121.2 44.6-168.9 86 35.2 21.8 74.1 39.1 115.8 51.3 13.7-55.6 31.8-102.5 53.1-137.3z"  horiz-adv-x="1024" />

    
    <glyph glyph-name="iconfontcolor100-copy" unicode="&#58936;" d="M1006.4 19.6l-420.8 812.272c-40.464 78.128-106.72 78.128-147.184 0l-420.816-812.272c-40.464-78.128-1.6-142.064 86.4-142.064h816c88-0 126.88 63.936 86.4 142.064zM460.816 582.832c0 28.256 22.912 51.184 51.184 51.184s51.216-22.944 51.216-51.184v-345.632c0-28.256-22.944-51.184-51.216-51.184s-51.184 22.944-51.184 51.184l-0 345.632zM512-9.168c-35.344 0-64 28.624-64 64 0 35.344 28.656 64 64 64s64-28.656 64-64c0-35.376-28.656-64-64-64z"  horiz-adv-x="1024" />

    
    <glyph glyph-name="xiala-copy" unicode="&#58918;" d="M512.001 699.845c174.142 0 315.827-141.687 315.827-315.829s-141.684-315.826-315.827-315.826c-174.142 0-315.831 141.685-315.829 315.826 0 174.142 141.687 315.828 315.83 315.829M512.001 748.432c-201.236 0-364.417-163.134-364.417-364.417 0-201.236 163.181-364.418 364.417-364.418 201.284 0 364.416 163.183 364.417 364.418 0 201.285-163.134 364.417-364.416 364.417zM512.001 258.368c-6.217 0-12.432 2.371-17.178 7.118l-154.878 154.879c-9.49 9.49-9.49 24.865 0 34.354 9.489 9.488 24.863 9.488 34.354 0l154.878-154.879c9.49-9.491 9.49-24.865 0-34.354-4.746-4.748-10.962-7.118-17.177-7.118zM512.001 258.368c-6.217 0-12.432 2.371-17.178 7.118-9.49 9.489-9.49 24.863 0 34.354l154.878 154.879c9.489 9.488 24.865 9.488 34.354 0 9.491-9.49 9.492-24.865 0-34.355l-154.878-154.879c-4.746-4.748-10.962-7.118-17.177-7.118z"  horiz-adv-x="1024" />

    
    <glyph glyph-name="xiala-copy-copy" unicode="&#58919;" d="M511.999 68.155c-174.142 0-315.827 141.687-315.827 315.829s141.684 315.826 315.827 315.826c174.142 0 315.831-141.685 315.829-315.826 0-174.142-141.687-315.828-315.83-315.829M511.999 19.568c201.236 0 364.417 163.134 364.417 364.417 0 201.236-163.181 364.418-364.417 364.418-201.284 0-364.416-163.183-364.417-364.418 0-201.285 163.134-364.417 364.416-364.417zM511.999 509.632c6.217 0 12.432-2.371 17.178-7.118l154.878-154.879c9.49-9.49 9.49-24.865 0-34.354-9.489-9.488-24.863-9.488-34.354 0l-154.878 154.879c-9.49 9.491-9.49 24.865 0 34.354 4.746 4.748 10.962 7.118 17.177 7.118zM511.999 509.632c6.217 0 12.432-2.371 17.178-7.118 9.49-9.489 9.49-24.863 0-34.354l-154.878-154.879c-9.489-9.488-24.865-9.488-34.354 0-9.491 9.49-9.492 24.865 0 34.355l154.878 154.879c4.746 4.748 10.962 7.118 17.177 7.118z"  horiz-adv-x="1024" />

    
    <glyph glyph-name="likaiim" unicode="&#58894;" d="M511.999488 750.254727c-248.681782 0-450.273176-201.543226-450.273176-450.214818 0-248.711502 201.591394-450.294636 450.273176-450.294636s450.273176 201.583135 450.273176 450.294636C962.272664 548.711502 760.68127 750.254727 511.999488 750.254727zM511.999488-65.79308c-202.051901 0-365.867422 163.810856-365.867422 365.832989 0 202.023156 163.814498 365.8115 365.867422 365.8115 202.049854 0 365.867422-163.789367 365.867422-365.8115C877.865887 98.017776 714.049343-65.79308 511.999488-65.79308zM547.17708 335.21606 547.17708 640.049766 476.821896 640.049766 476.821896 264.823849 521.393824 264.823849 547.17708 264.823849 830.976076 264.823849 830.976076 335.21606Z"  horiz-adv-x="1024" />

    
    </font>
</defs>
</svg>
